<?xml version="1.0" encoding="UTF-8"?>
<svg xmlns="http://www.w3.org/2000/svg" xmlns:xlink="http://www.w3.org/1999/xlink" version="1.2" >
<font id="A1 Sans">
<font-face  font-family="A1 Sans" units-per-em="2048" ascent="1536" descent="-512" font-style="normal" font-weight="400" font-stretch="normal" cap-height="1475" x-height="1080" underline-position="-348" underline-thickness="148" />
<missing-glyph  horiz-adv-x="451" d="M45 0 L45 1475 L406 1475 L406 0 L45 0 Z M361 45 L361 1430 L90 1430 L90 45 L361 45 Z " />
<glyph glyph-name="space" unicode="&#x20;" horiz-adv-x="451" d="" />
<glyph glyph-name="exclam" unicode="&#x21;" horiz-adv-x="698" d="M273 385 L249 1475 L449 1475 L426 385 L273 385 Z M352 219 Q406 219 444 178 Q477 143 477 95 Q477 40 435 3 Q399 -29 350 -29 Q292 -29 255 12 Q222 47 222 96 Q222 150 264 187 Q301 219 352 219 Z " />
<glyph glyph-name="quotedbl" unicode="&#x22;" horiz-adv-x="658" d="M112 909 L112 1475 L245 1475 L245 909 L112 909 Z M413 909 L413 1475 L546 1475 L546 909 L413 909 Z " />
<glyph glyph-name="numbersign" unicode="&#x23;" horiz-adv-x="1303" d="M315 466 L114 466 L133 600 L334 600 L371 850 L170 850 L189 984 L390 984 L460 1462 L616 1462 L546 984 L830 984 L900 1462 L1056 1462 L986 984 L1188 984 L1169 850 L967 850 L930 600 L1132 600 L1113 466 L911 466 L843 0 L687 0 L755 466 L471 466 L403 0 L247 0 L315 466 Z M490 600 L774 600 L811 850 L527 850 L490 600 Z " />
<glyph glyph-name="dollar" unicode="&#x24;" horiz-adv-x="1303" d="M95 429 L263 429 Q267 336 298 283 Q353 188 479 156 Q525 144 593 137 L593 703 Q444 742 403 755 Q362 768 315 794 Q137 892 137 1096 Q137 1226 206 1319 Q299 1444 480 1474 Q529 1482 593 1484 L593 1641 L710 1641 L710 1480 Q886 1460 977 1387 Q1112 1279 1114 1052 L953 1052 Q948 1196 872 1266 Q819 1315 710 1336 L710 846 Q907 798 984 760 Q1209 648 1209 412 Q1209 270 1127 164 Q1032 40 826 5 Q776 -3 710 -8 L710 -169 L593 -169 L593 -8 Q388 4 262 86 Q134 169 103 316 Q95 359 95 429 Z M710 672 L710 135 Q846 150 905 182 Q973 220 1008 282 Q1039 337 1039 398 Q1039 541 898 611 Q844 637 710 672 Z M593 877 L593 1345 Q472 1334 418 1303 Q304 1236 304 1115 Q304 982 443 923 Q477 908 593 877 Z " />
<glyph glyph-name="percent" unicode="&#x25;" horiz-adv-x="1745" d="M444 1506 Q628 1506 723 1396 Q815 1290 815 1118 Q815 946 723 839 Q629 729 441 729 Q258 729 164 839 Q72 946 72 1123 Q72 1290 164 1396 Q259 1506 444 1506 Z M444 1375 Q227 1375 227 1121 Q227 860 444 860 Q660 860 660 1118 Q660 1375 444 1375 Z M1319 748 Q1503 748 1598 638 Q1690 531 1690 359 Q1690 188 1598 81 Q1504 -29 1316 -29 Q1133 -29 1039 81 Q947 188 947 365 Q947 532 1039 638 Q1134 748 1319 748 Z M1319 617 Q1102 617 1102 363 Q1102 102 1319 102 Q1535 102 1535 359 Q1535 617 1319 617 Z M365 0 L1235 1475 L1395 1475 L525 0 L365 0 Z " />
<glyph glyph-name="ampersand" unicode="&#x26;" horiz-adv-x="1508" d="M504 841 Q445 904 398 963 Q348 1025 325 1072 Q299 1125 299 1196 Q299 1328 400 1416 Q503 1506 678 1506 Q860 1506 965 1413 Q1063 1326 1063 1198 Q1063 1109 1006 1037 Q954 971 724 821 L1087 409 Q1156 556 1218 804 L1378 804 Q1289 458 1192 287 L1443 0 L1236 0 L1094 161 Q1029 90 987 61 Q856 -32 647 -32 Q434 -32 298 65 Q213 125 170 222 Q137 298 137 384 Q137 510 212 607 Q269 680 396 768 Q431 793 504 841 Z M631 929 L685 966 Q776 1026 818 1059 Q899 1123 899 1199 Q899 1272 846 1318 Q789 1367 678 1367 Q576 1367 517 1319 Q462 1274 462 1201 Q462 1148 496 1093 Q515 1064 583 985 L631 929 Z M597 732 Q456 640 423 612 Q310 519 310 400 Q310 262 410 186 Q508 110 664 110 Q825 110 917 191 Q943 214 997 274 L597 732 Z " />
<glyph glyph-name="quotesingle" unicode="&#x27;" horiz-adv-x="356" d="M112 909 L112 1475 L245 1475 L245 909 L112 909 Z " />
<glyph glyph-name="parenleft" unicode="&#x28;" horiz-adv-x="857" d="M750 -356 L600 -356 Q442 -159 358 32 Q234 309 234 612 Q234 936 378 1231 Q459 1397 600 1572 L750 1572 Q597 1362 521 1177 Q409 908 409 612 Q409 295 537 5 Q609 -160 750 -356 Z " />
<glyph glyph-name="parenright" unicode="&#x29;" horiz-adv-x="857" d="M107 1572 L257 1572 Q623 1115 623 604 Q623 95 257 -356 L107 -356 Q260 -144 337 39 Q448 307 448 603 Q448 922 320 1211 Q248 1376 107 1572 Z " />
<glyph glyph-name="asterisk" unicode="&#x2a;" horiz-adv-x="1179" d="M173 1166 L224 1311 L521 1208 L515 1507 L664 1507 L657 1208 L955 1309 L1006 1165 L698 1082 L906 834 L779 743 L589 1003 L399 744 L272 833 L480 1082 L173 1166 Z " />
<glyph glyph-name="plus" unicode="&#x2b;" horiz-adv-x="1303" d="M158 664 L158 809 L576 809 L576 1188 L728 1188 L728 809 L1145 809 L1145 664 L728 664 L728 285 L576 285 L576 664 L158 664 Z " />
<glyph glyph-name="comma" unicode="&#x2c;" horiz-adv-x="644" d="M155 -273 L289 217 L504 217 L303 -273 L155 -273 Z " />
<glyph glyph-name="hyphen" unicode="&#x2d;" horiz-adv-x="805" d="M123 541 L123 689 L683 689 L683 541 L123 541 Z " />
<glyph glyph-name="period" unicode="&#x2e;" horiz-adv-x="641" d="M323 219 Q377 219 415 178 Q448 143 448 95 Q448 40 406 3 Q370 -29 321 -29 Q263 -29 226 12 Q193 47 193 96 Q193 150 235 187 Q272 219 323 219 Z " />
<glyph glyph-name="slash" unicode="&#x2f;" horiz-adv-x="909" d="M70 -184 L650 1475 L807 1475 L228 -184 L70 -184 Z " />
<glyph glyph-name="zero" unicode="0" horiz-adv-x="1303" d="M651 1504 Q977 1504 1115 1194 Q1197 1011 1197 738 Q1197 431 1095 239 Q952 -29 651 -29 Q325 -29 187 281 Q105 464 105 743 Q105 887 136 1032 Q184 1258 316 1380 Q450 1504 651 1504 Z M651 1352 Q434 1352 338 1118 Q278 973 278 743 Q278 477 352 325 Q451 123 651 123 Q867 123 964 357 Q1024 503 1024 738 Q1024 999 950 1150 Q851 1352 651 1352 Z " />
<glyph glyph-name="one" unicode="1" horiz-adv-x="1303" d="M590 0 L590 1303 L206 1167 L206 1315 L644 1475 L761 1475 L761 0 L590 0 Z " />
<glyph glyph-name="two" unicode="2" horiz-adv-x="1303" d="M90 0 Q105 111 169 210 Q221 291 294 365 Q347 418 483 532 Q772 775 845 864 Q935 976 935 1092 Q935 1211 850 1282 Q762 1356 620 1356 Q423 1356 325 1217 Q282 1155 262 1031 L99 1031 Q128 1236 221 1343 Q361 1504 623 1504 Q850 1504 984 1394 Q1116 1286 1116 1099 Q1116 921 991 783 Q903 688 675 509 Q458 338 399 275 Q349 221 316 148 L1156 148 L1156 0 L90 0 Z " />
<glyph glyph-name="three" unicode="3" horiz-adv-x="1303" d="M456 705 L456 841 Q510 840 532 840 Q705 840 786 880 Q931 951 931 1114 Q931 1233 846 1294 Q762 1355 627 1355 Q354 1355 298 1120 L135 1120 Q160 1274 250 1368 Q379 1504 628 1504 Q856 1504 984 1393 Q1105 1289 1105 1117 Q1105 962 1024 870 Q976 816 891 779 Q1160 693 1160 407 Q1160 192 1002 74 Q863 -29 632 -29 Q134 -29 97 399 L263 399 Q308 121 628 121 Q772 121 864 183 Q983 263 983 407 Q983 598 788 671 Q696 705 490 705 L456 705 Z " />
<glyph glyph-name="four" unicode="4" horiz-adv-x="1303" d="M834 0 L834 321 L102 321 L102 445 L563 1475 L743 1475 L286 469 L834 469 L834 1039 L999 1039 L999 469 L1238 469 L1238 321 L999 321 L999 0 L834 0 Z " />
<glyph glyph-name="five" unicode="5" horiz-adv-x="1303" d="M203 717 L254 1475 L1083 1475 L1083 1325 L412 1325 L373 856 Q508 938 670 938 Q872 938 999 834 Q1165 698 1165 453 Q1165 236 1028 108 Q883 -29 633 -29 Q328 -29 199 156 Q135 248 120 399 L287 399 Q305 281 378 209 Q467 121 634 121 Q802 121 900 223 Q988 313 988 449 Q988 602 890 698 Q799 788 646 788 Q534 788 447 739 Q402 713 318 647 L203 717 Z " />
<glyph glyph-name="six" unicode="6" horiz-adv-x="1303" d="M322 796 Q369 845 412 872 Q521 938 678 938 Q885 938 1017 830 Q1181 698 1181 466 Q1181 235 1027 98 Q884 -29 659 -29 Q389 -29 251 151 Q140 296 140 587 Q140 1028 262 1253 Q397 1504 697 1504 Q953 1504 1068 1337 Q1127 1253 1139 1127 L973 1127 Q934 1354 693 1354 Q536 1354 448 1239 Q343 1101 322 796 Z M662 788 Q505 788 412 700 Q316 608 316 461 Q316 308 414 210 Q503 121 659 121 Q821 121 910 209 Q1007 307 1007 455 Q1007 608 911 699 Q819 788 662 788 Z " />
<glyph glyph-name="seven" unicode="7" horiz-adv-x="1303" d="M953 1325 L152 1325 L152 1475 L1125 1475 L1125 1339 L537 0 L347 0 L953 1325 Z " />
<glyph glyph-name="eight" unicode="8" horiz-adv-x="1303" d="M377 782 Q278 825 231 881 Q154 972 154 1104 Q154 1290 296 1400 Q430 1504 650 1504 Q889 1504 1025 1383 Q1146 1274 1146 1105 Q1146 962 1060 870 Q1014 821 923 782 Q1034 748 1108 669 Q1206 564 1206 405 Q1206 203 1045 84 Q892 -29 648 -29 Q386 -29 233 100 Q95 218 95 405 Q95 574 205 681 Q276 751 377 782 Z M649 1357 Q472 1357 391 1277 Q322 1210 322 1105 Q322 980 410 914 Q496 850 649 850 Q815 850 902 925 Q977 989 977 1102 Q977 1221 895 1289 Q813 1357 649 1357 Z M651 703 Q473 703 370 622 Q271 544 271 420 Q271 273 383 195 Q485 124 650 124 Q831 124 934 207 Q1030 284 1030 417 Q1030 554 916 633 Q814 703 651 703 Z " />
<glyph glyph-name="nine" unicode="9" horiz-adv-x="1303" d="M962 707 Q916 658 873 631 Q767 565 614 565 Q419 565 291 669 Q137 795 137 1019 Q137 1248 283 1380 Q419 1504 634 1504 Q790 1504 910 1434 Q1042 1357 1099 1203 Q1144 1082 1144 874 Q1144 446 1034 225 Q908 -29 595 -29 Q335 -29 215 142 Q156 227 143 357 L309 357 Q352 121 600 121 Q766 121 852 241 Q945 372 962 707 Z M634 1353 Q483 1353 401 1268 Q311 1175 311 1029 Q311 885 397 800 Q482 715 630 715 Q783 715 873 799 Q966 887 966 1027 Q966 1176 870 1268 Q782 1353 634 1353 Z " />
<glyph glyph-name="colon" unicode="&#x3a;" horiz-adv-x="641" d="M359 219 Q413 219 451 178 Q484 143 484 95 Q484 40 442 3 Q406 -29 357 -29 Q299 -29 262 12 Q229 47 229 96 Q229 150 271 187 Q308 219 359 219 Z M359 911 Q413 911 451 870 Q484 835 484 787 Q484 732 442 695 Q406 663 357 663 Q300 663 262 704 Q229 739 229 788 Q229 842 271 879 Q307 911 359 911 Z " />
<glyph glyph-name="semicolon" unicode="&#x3b;" horiz-adv-x="645" d="M179 -273 L313 217 L528 217 L327 -273 L179 -273 Z M425 911 Q479 911 517 870 Q550 835 550 787 Q550 731 508 695 Q472 663 423 663 Q366 663 328 704 Q295 739 295 788 Q295 842 337 879 Q373 911 425 911 Z " />
<glyph glyph-name="less" unicode="&#x3c;" horiz-adv-x="1303" d="M374 737 L1101 362 L1101 198 L199 684 L199 791 L1101 1277 L1101 1112 L374 737 Z " />
<glyph glyph-name="equal" unicode="&#x3d;" horiz-adv-x="1303" d="M158 505 L158 650 L1145 650 L1145 505 L158 505 Z M158 823 L158 968 L1145 968 L1145 823 L158 823 Z " />
<glyph glyph-name="greater" unicode="&#x3e;" horiz-adv-x="1303" d="M929 737 L202 1112 L202 1277 L1104 791 L1104 684 L202 198 L202 362 L929 737 Z " />
<glyph glyph-name="question" unicode="&#x3f;" horiz-adv-x="1095" d="M424 385 L424 451 Q424 592 469 666 Q499 717 548 752 Q557 758 676 828 Q769 882 804 941 Q847 1013 847 1114 Q847 1227 777 1289 Q702 1356 570 1356 Q405 1356 326 1245 Q281 1183 261 1053 L99 1053 Q112 1163 134 1223 Q183 1356 289 1430 Q400 1508 576 1508 Q778 1508 898 1403 Q1020 1296 1020 1106 Q1020 918 912 811 Q858 757 708 672 Q623 623 601 572 Q584 531 584 464 L584 385 L424 385 Z M506 219 Q560 219 598 178 Q631 143 631 95 Q631 40 589 3 Q553 -29 504 -29 Q446 -29 408 12 Q376 47 376 96 Q376 150 418 187 Q454 219 506 219 Z " />
<glyph glyph-name="at" unicode="&#x40;" horiz-adv-x="2203" d="M1391 377 Q1274 216 1058 216 Q874 216 762 333 Q653 446 653 627 Q653 808 762 921 Q872 1035 1054 1035 Q1264 1035 1377 882 L1383 1026 L1521 1026 L1521 497 Q1521 427 1536 396 Q1562 344 1650 344 Q1780 344 1846 452 Q1909 553 1909 718 Q1909 1031 1691 1203 Q1472 1375 1129 1375 Q706 1375 477 1109 Q294 898 294 584 Q294 268 478 104 Q616 -21 802 -65 Q981 -109 1185 -109 Q1541 -109 1871 12 L1922 -114 Q1790 -164 1685 -190 Q1457 -246 1186 -246 Q847 -246 623 -155 Q123 48 123 588 Q123 961 364 1215 Q644 1512 1126 1512 Q1501 1512 1756 1338 Q1932 1218 2017 1031 Q2080 891 2080 728 Q2080 493 1967 359 Q1909 288 1818 251 Q1731 215 1634 215 Q1497 215 1438 278 Q1406 312 1391 377 Z M1078 899 Q961 899 890 824 Q819 750 819 626 Q819 502 890 427 Q962 352 1081 352 Q1212 352 1291 437 Q1362 513 1362 622 Q1362 740 1291 814 Q1209 899 1078 899 Z " />
<glyph glyph-name="A" unicode="A" horiz-adv-x="1343" d="M985 414 L359 414 L203 0 L21 0 L601 1475 L743 1475 L1323 0 L1141 0 L985 414 Z M932 558 L672 1249 L411 558 L932 558 Z " />
<glyph glyph-name="B" unicode="B" horiz-adv-x="1343" d="M184 0 L184 1475 L672 1475 Q903 1475 1026 1384 Q1153 1290 1153 1108 Q1153 974 1075 889 Q1030 841 947 804 Q1067 776 1139 698 Q1235 593 1235 429 Q1235 201 1058 86 Q925 0 666 0 L184 0 Z M356 865 L673 865 Q815 865 892 920 Q977 980 977 1094 Q977 1223 877 1285 Q800 1333 670 1333 L356 1333 L356 865 Z M356 142 L630 142 Q837 142 935 203 Q1055 278 1055 432 Q1055 590 933 666 Q842 722 695 722 L356 722 L356 142 Z " />
<glyph glyph-name="C" unicode="C" horiz-adv-x="1402" d="M1188 342 L1302 227 Q1214 111 1111 53 Q964 -29 759 -29 Q423 -29 259 193 Q110 393 110 727 Q110 1092 284 1303 Q448 1503 753 1503 Q1057 1503 1196 1315 Q1274 1210 1278 1046 L1107 1046 Q1101 1164 1037 1239 Q942 1350 754 1350 Q517 1350 399 1170 Q290 1002 290 728 Q290 447 416 281 Q533 126 765 126 Q932 126 1056 210 Q1107 245 1188 342 Z " />
<glyph glyph-name="D" unicode="D" horiz-adv-x="1467" d="M184 0 L184 1475 L574 1475 Q921 1475 1122 1307 Q1356 1112 1356 738 Q1356 363 1122 168 Q922 0 571 0 L184 0 Z M360 148 L562 148 Q835 148 993 279 Q1176 430 1176 738 Q1176 1044 994 1196 Q836 1327 560 1327 L360 1327 L360 148 Z " />
<glyph glyph-name="E" unicode="E" horiz-adv-x="1193" d="M184 0 L184 1475 L1095 1475 L1095 1327 L360 1327 L360 840 L973 840 L973 693 L360 693 L360 148 L1111 148 L1111 0 L184 0 Z " />
<glyph glyph-name="F" unicode="F" horiz-adv-x="1146" d="M184 0 L184 1475 L1094 1475 L1094 1327 L360 1327 L360 830 L973 830 L973 683 L360 683 L360 0 L184 0 Z " />
<glyph glyph-name="G" unicode="G" horiz-adv-x="1511" d="M866 600 L866 742 L1348 742 L1348 59 Q1095 -29 788 -29 Q561 -29 426 48 Q256 143 174 348 Q110 505 110 725 Q110 1090 292 1303 Q464 1503 779 1503 Q1100 1503 1242 1316 Q1322 1210 1324 1046 L1153 1046 Q1147 1166 1081 1239 Q981 1350 779 1350 Q529 1350 406 1170 Q290 1001 290 727 Q290 443 421 278 Q488 195 580 158 Q669 124 801 124 Q989 124 1178 190 L1178 600 L866 600 Z " />
<glyph glyph-name="H" unicode="H" horiz-adv-x="1433" d="M184 0 L184 1475 L360 1475 L360 850 L1072 850 L1072 1475 L1248 1475 L1248 0 L1072 0 L1072 703 L360 703 L360 0 L184 0 Z " />
<glyph glyph-name="I" unicode="I" horiz-adv-x="545" d="M184 0 L184 1475 L360 1475 L360 0 L184 0 Z " />
<glyph glyph-name="J" unicode="J" horiz-adv-x="586" d="M225 1475 L401 1475 L401 133 Q401 -25 373 -102 Q325 -235 187 -277 Q133 -293 39 -297 L39 -150 Q148 -141 184 -91 Q211 -55 219 4 Q225 41 225 123 L225 1475 Z " />
<glyph glyph-name="K" unicode="K" horiz-adv-x="1192" d="M184 0 L184 1475 L360 1475 L360 786 L974 1475 L1179 1475 L553 781 L1240 0 L1023 0 L360 765 L360 0 L184 0 Z " />
<glyph glyph-name="L" unicode="L" horiz-adv-x="1082" d="M184 0 L184 1475 L360 1475 L360 148 L1031 148 L1031 0 L184 0 Z " />
<glyph glyph-name="M" unicode="M" horiz-adv-x="1765" d="M98 0 L258 1475 L429 1475 L883 300 L1336 1475 L1507 1475 L1667 0 L1499 0 L1374 1143 L932 0 L834 0 L391 1143 L266 0 L98 0 Z " />
<glyph glyph-name="N" unicode="N" horiz-adv-x="1433" d="M184 0 L184 1475 L354 1475 L1075 374 L1075 1475 L1248 1475 L1248 -19 L1130 -19 L357 1175 L357 0 L184 0 Z " />
<glyph glyph-name="O" unicode="O" horiz-adv-x="1543" d="M772 1504 Q1130 1504 1295 1262 Q1432 1061 1432 738 Q1432 415 1295 213 Q1131 -29 773 -29 Q411 -29 247 213 Q110 415 110 747 Q110 1064 247 1262 Q415 1504 772 1504 Z M771 1349 Q518 1349 402 1183 Q290 1024 290 746 Q290 546 335 422 Q399 244 535 175 Q629 126 778 126 Q1025 126 1140 292 Q1252 453 1252 738 Q1252 1349 771 1349 Z " />
<glyph glyph-name="P" unicode="P" horiz-adv-x="1269" d="M184 0 L184 1475 L591 1475 Q746 1475 846 1456 Q1021 1423 1111 1299 Q1192 1188 1192 1022 Q1192 859 1113 750 Q1026 631 847 596 Q729 573 592 573 L360 573 L360 0 L184 0 Z M360 718 L601 718 Q802 718 896 783 Q1012 863 1012 1025 Q1012 1180 904 1259 Q811 1327 606 1327 L360 1327 L360 718 Z " />
<glyph glyph-name="Q" unicode="Q" horiz-adv-x="1550" d="M1400 -135 L1451 -279 Q1331 -344 1217 -344 Q1151 -344 1074 -320 Q1033 -308 944 -271 Q846 -231 812 -219 Q739 -193 685 -193 Q572 -193 414 -306 L353 -166 Q434 -118 464 -103 Q582 -45 696 -45 Q774 -45 870 -78 Q901 -88 1000 -128 Q1155 -189 1224 -189 Q1307 -189 1400 -135 Z M772 1504 Q1130 1504 1295 1262 Q1432 1061 1432 738 Q1432 415 1295 213 Q1131 -29 773 -29 Q411 -29 247 213 Q110 415 110 747 Q110 1064 247 1262 Q415 1504 772 1504 Z M771 1349 Q518 1349 402 1183 Q290 1024 290 746 Q290 546 335 422 Q399 244 535 175 Q629 126 778 126 Q1025 126 1140 292 Q1252 453 1252 738 Q1252 1349 771 1349 Z " />
<glyph glyph-name="R" unicode="R" horiz-adv-x="1319" d="M173 0 L173 1475 L629 1475 Q769 1475 860 1460 Q1022 1432 1107 1317 Q1186 1210 1186 1050 Q1186 854 1063 746 Q1019 707 918 663 Q974 632 1007 582 Q1041 531 1073 434 L1218 0 L1024 0 L912 344 Q883 434 869 461 Q819 551 761 581 Q705 609 575 609 L349 609 L349 0 L173 0 Z M349 754 L616 754 Q810 754 893 809 Q1006 883 1006 1041 Q1006 1196 900 1271 Q820 1327 628 1327 L349 1327 L349 754 Z " />
<glyph glyph-name="S" unicode="S" horiz-adv-x="1258" d="M97 429 L268 429 Q274 291 340 221 Q433 123 632 123 Q813 123 905 202 Q992 277 992 398 Q992 520 899 586 Q837 629 755 654 Q688 674 593 698 Q425 741 357 770 Q228 827 179 916 Q137 992 137 1096 Q137 1266 240 1375 Q362 1504 600 1504 Q1075 1504 1078 1052 L907 1052 Q902 1188 849 1255 Q771 1352 604 1352 Q461 1352 384 1282 Q311 1215 311 1114 Q311 997 406 941 Q462 908 532 888 Q593 871 672 852 Q863 805 941 767 Q1168 655 1168 412 Q1168 215 1042 99 Q903 -29 635 -29 Q309 -29 178 144 Q100 246 97 429 Z " />
<glyph glyph-name="T" unicode="T" horiz-adv-x="1110" d="M466 0 L466 1327 L45 1327 L45 1475 L1064 1475 L1064 1327 L642 1327 L642 0 L466 0 Z " />
<glyph glyph-name="U" unicode="U" horiz-adv-x="1397" d="M175 1475 L351 1475 L351 554 Q351 356 404 264 Q483 126 698 126 Q914 126 992 264 Q1045 357 1045 554 L1045 1475 L1221 1475 L1221 612 Q1221 402 1196 295 Q1158 135 1031 53 Q902 -29 698 -29 Q380 -29 255 163 Q200 249 183 392 Q175 466 175 612 L175 1475 Z " />
<glyph glyph-name="V" unicode="V" horiz-adv-x="1190" d="M535 -32 L17 1475 L199 1475 L595 297 L991 1475 L1173 1475 L656 -32 L535 -32 Z " />
<glyph glyph-name="W" unicode="W" horiz-adv-x="1888" d="M448 -32 L80 1475 L259 1475 L529 328 L896 1483 L993 1483 L1359 328 L1629 1475 L1809 1475 L1440 -32 L1312 -32 L944 1131 L577 -32 L448 -32 Z " />
<glyph glyph-name="X" unicode="X" horiz-adv-x="1214" d="M503 769 L56 1475 L258 1475 L627 896 L959 1475 L1154 1475 L714 754 L1191 0 L989 0 L590 627 L216 0 L19 0 L503 769 Z " />
<glyph glyph-name="Y" unicode="Y" horiz-adv-x="1130" d="M477 0 L477 577 L-25 1475 L167 1475 L565 751 L962 1475 L1154 1475 L653 577 L653 0 L477 0 Z " />
<glyph glyph-name="Z" unicode="Z" horiz-adv-x="1127" d="M43 0 L43 133 L811 1327 L103 1327 L103 1475 L1022 1475 L1022 1362 L244 148 L1060 148 L1060 0 L43 0 Z " />
<glyph glyph-name="bracketleft" unicode="&#x5b;" horiz-adv-x="857" d="M314 -356 L314 1572 L734 1572 L734 1438 L481 1438 L481 -217 L734 -217 L734 -356 L314 -356 Z " />
<glyph glyph-name="backslash" unicode="&#x5c;" horiz-adv-x="909" d="M839 -184 L682 -184 L102 1475 L260 1475 L839 -184 Z " />
<glyph glyph-name="bracketright" unicode="&#x5d;" horiz-adv-x="857" d="M544 1572 L544 -356 L124 -356 L124 -222 L377 -222 L377 1433 L124 1433 L124 1572 L544 1572 Z " />
<glyph glyph-name="asciicircum" unicode="&#x5e;" horiz-adv-x="1303" d="M651 1336 L303 905 L110 905 L593 1475 L708 1475 L1191 905 L999 905 L651 1336 Z " />
<glyph glyph-name="underscore" unicode="&#x5f;" horiz-adv-x="1065" d="M-5 -422 L-5 -274 L1070 -274 L1070 -422 L-5 -422 Z " />
<glyph glyph-name="grave" unicode="&#x60;" horiz-adv-x="1024" d="M526 1225 L259 1553 L451 1553 L648 1225 L526 1225 Z " />
<glyph glyph-name="a" unicode="a" horiz-adv-x="1262" d="M926 0 L926 160 Q795 -32 571 -32 Q351 -32 223 132 Q100 290 100 540 Q100 790 223 948 Q352 1112 570 1112 Q791 1112 916 929 L916 1080 L1087 1080 L1087 0 L926 0 Z M589 965 Q446 965 359 847 Q273 730 273 540 Q273 350 359 233 Q445 115 589 115 Q744 115 835 249 Q916 370 916 535 Q916 714 835 831 Q741 965 589 965 Z " />
<glyph glyph-name="b" unicode="b" horiz-adv-x="1272" d="M175 0 L175 1516 L345 1516 L345 929 Q468 1113 695 1113 Q917 1113 1046 948 Q1171 790 1171 540 Q1171 290 1046 132 Q917 -32 694 -32 Q462 -32 333 163 L325 0 L175 0 Z M676 966 Q521 966 428 832 Q345 712 345 546 Q345 369 428 249 Q520 115 677 115 Q823 115 911 233 Q998 351 998 541 Q998 733 911 848 Q821 966 676 966 Z " />
<glyph glyph-name="c" unicode="c" horiz-adv-x="1096" d="M928 260 L1015 136 Q844 -32 594 -32 Q365 -32 237 107 Q100 255 100 525 Q100 787 226 952 Q349 1113 590 1113 Q840 1113 942 947 Q996 859 998 737 L840 737 Q820 965 592 965 Q431 965 349 839 Q273 722 273 533 Q273 325 374 213 Q461 116 607 116 Q781 116 928 260 Z " />
<glyph glyph-name="d" unicode="d" horiz-adv-x="1272" d="M936 0 L936 160 Q807 -32 577 -32 Q354 -32 225 132 Q100 290 100 540 Q100 790 225 948 Q354 1113 576 1113 Q800 1113 926 929 L926 1516 L1096 1516 L1096 0 L936 0 Z M594 966 Q449 966 360 848 Q273 731 273 541 Q273 350 360 233 Q448 115 594 115 Q751 115 843 249 Q926 369 926 535 Q926 715 843 832 Q748 966 594 966 Z " />
<glyph glyph-name="e" unicode="e" horiz-adv-x="1183" d="M1086 496 L274 496 Q286 400 295 363.5 Q304 327 325 288 Q418 116 611 116 Q742 116 860 178 Q907 203 976 254 L1058 124 Q846 -32 613 -32 Q365 -32 227 133 Q100 284 100 530 Q100 788 234 949 Q369 1112 598 1112 Q782 1112 907 997 Q1084 836 1086 496 Z M914 629 Q894 758 851 825 Q760 970 596 970 Q334 970 277 629 L914 629 Z " />
<glyph glyph-name="f" unicode="f" horiz-adv-x="734" d="M243 0 L243 933 L82 933 L82 1080 L243 1081 L243 1122 Q243 1316 307 1411 Q387 1531 579 1531 Q662 1531 744 1516 L733 1374 Q656 1387 595 1387 Q518 1387 480 1357 Q413 1305 413 1123 L413 1080 L697 1080 L697 933 L413 933 L413 0 L243 0 Z " />
<glyph glyph-name="g" unicode="g" horiz-adv-x="1272" d="M926 158 Q802 -23 577 -23 Q355 -23 225 139 Q100 294 100 540 Q100 787 222 944 Q352 1112 578 1112 Q807 1112 937 920 L937 1080 L1097 1080 L1097 159 Q1097 -14 1075 -117 Q1000 -467 601 -467 Q344 -467 148 -329 L230 -200 Q295 -245 345 -269 Q463 -324 602 -324 Q802 -324 875 -185 Q912 -115 921 -10 Q926 44 926 125 L926 158 Z M594 965 Q448 965 360 847 Q273 730 273 541 Q273 354 360 239 Q447 124 595 124 Q751 124 843 255 Q926 373 926 535 Q926 714 843 831 Q748 965 594 965 Z " />
<glyph glyph-name="h" unicode="h" horiz-adv-x="1241" d="M175 0 L175 1516 L345 1516 L345 901 Q430 985 494 1029 Q617 1113 752 1113 Q948 1113 1022 969 Q1059 897 1070 785 Q1075 732 1075 627 L1075 0 L905 0 L905 636 Q905 779 882 846 Q844 956 710 956 Q601 956 483 861 Q425 815 345 722 L345 0 L175 0 Z " />
<glyph glyph-name="i" unicode="i" horiz-adv-x="537" d="M183 0 L183 1080 L353 1080 L353 0 L183 0 Z M270 1491 Q319 1491 354 1454 Q383 1423 383 1379 Q383 1329 345 1296 Q312 1267 268 1267 Q217 1267 183 1304 Q153 1336 153 1380 Q153 1429 191 1463 Q223 1491 270 1491 Z " />
<glyph glyph-name="j" unicode="j" horiz-adv-x="554" d="M201 1080 L371 1080 L371 23 Q371 -147 343 -229 Q278 -425 21 -439 L21 -291 Q84 -284 114 -268 Q170 -237 189 -153 Q201 -100 201 21 L201 1080 Z M288 1491 Q338 1491 371 1454 Q401 1422 401 1379 Q401 1329 363 1296 Q330 1267 286 1267 Q236 1267 201 1304 Q171 1336 171 1380 Q171 1429 209 1463 Q241 1491 288 1491 Z " />
<glyph glyph-name="k" unicode="k" horiz-adv-x="1073" d="M175 0 L175 1516 L345 1516 L345 643 L802 1080 L1003 1080 L527 623 L1089 0 L884 0 L345 609 L345 -1 L175 0 Z " />
<glyph glyph-name="l" unicode="l" horiz-adv-x="520" d="M175 0 L175 1516 L345 1516 L345 0 L175 0 Z " />
<glyph glyph-name="m" unicode="m" horiz-adv-x="1809" d="M175 0 L175 1080 L343 1080 L343 899 Q415 981 480 1029 Q591 1112 709 1112 Q847 1112 919 1015 Q948 976 973 881 Q1067 984 1122 1025 Q1238 1112 1359 1112 Q1532 1112 1597 968 Q1629 896 1639 785 Q1643 735 1643 627 L1643 0 L1473 0 L1473 636 Q1473 778 1455 844 Q1424 955 1315 955 Q1223 955 1119 862 Q1081 828 994 721 L994 0 L824 0 L824 636 Q824 780 806 844 Q776 955 667 955 Q521 955 345 721 L345 0 L175 0 Z " />
<glyph glyph-name="n" unicode="n" horiz-adv-x="1242" d="M175 0 L175 1080 L345 1080 L345 898 Q433 986 498 1030 Q620 1113 754 1113 Q948 1113 1022 969 Q1059 897 1070 785 Q1075 729 1075 627 L1075 0 L905 0 L905 636 Q905 780 882 846 Q844 956 711 956 Q601 956 485 862 Q423 813 345 721 L345 0 L175 0 Z " />
<glyph glyph-name="o" unicode="o" horiz-adv-x="1240" d="M620 1112 Q856 1112 1001 948 Q1139 791 1139 540 Q1139 290 1001 132 Q857 -32 621 -32 Q382 -32 238 132 Q100 290 100 547 Q100 790 238 948 Q381 1112 620 1112 Z M620 965 Q447 965 352 831 Q273 720 273 546 Q273 360 352 249 Q446 115 620 115 Q793 115 887 249 Q966 360 966 540 Q966 721 887 831 Q792 965 620 965 Z " />
<glyph glyph-name="p" unicode="p" horiz-adv-x="1272" d="M175 -439 L175 1080 L334 1080 L334 919 Q462 1112 695 1112 Q917 1112 1046 948 Q1171 790 1171 540 Q1171 290 1046 132 Q917 -32 695 -32 Q470 -32 345 151 L345 -439 L175 -439 Z M676 965 Q521 965 428 831 Q345 711 345 545 Q345 369 428 249 Q520 115 677 115 Q823 115 911 233 Q998 350 998 540 Q998 732 911 847 Q821 965 676 965 Z " />
<glyph glyph-name="q" unicode="q" horiz-adv-x="1272" d="M926 -439 L926 151 Q882 89 843 57 Q736 -32 576 -32 Q354 -32 225 132 Q100 290 100 540 Q100 790 225 948 Q354 1112 576 1112 Q804 1112 937 920 L937 1080 L1096 1080 L1096 -439 L926 -439 Z M594 965 Q448 965 360 847 Q273 731 273 540 Q273 350 360 233 Q448 115 595 115 Q751 115 843 249 Q926 369 926 535 Q926 715 843 831 Q748 965 594 965 Z " />
<glyph glyph-name="r" unicode="r" horiz-adv-x="798" d="M175 0 L175 1080 L340 1080 L340 894 Q426 1004 489 1041 Q578 1094 699 1094 L742 1094 L742 930 L704 930 Q618 930 566 912 Q481 882 408 783 Q389 757 345 687 L345 0 L175 0 Z " />
<glyph glyph-name="s" unicode="s" horiz-adv-x="1042" d="M73 332 L231 332 Q242 234 282 189 Q357 108 525 108 Q793 108 793 295 Q793 387 727 427 Q688 451 625 463 Q593 470 498 487 Q322 519 243 567 Q126 638 126 792 Q126 947 236 1035 Q333 1112 497 1112 Q631 1112 729 1062 Q883 983 886 782 L728 782 Q718 867 687 903 Q627 972 493 972 Q400 972 348 931 Q293 888 293 807 Q293 724 358 689 Q407 663 552 636 Q685 611 741 592 Q866 548 915 467 Q956 399 956 305 Q956 145 845 57 Q731 -32 527 -32 Q80 -32 73 332 Z " />
<glyph glyph-name="t" unicode="t" horiz-adv-x="758" d="M237 933 L76 933 L76 1080 L239 1080 L253 1400 L407 1400 L407 1080 L696 1080 L696 933 L407 933 L407 342 Q407 228 444 184 Q476 147 550 147 L723 147 L723 0 L543 0 Q237 0 237 315 L237 933 Z " />
<glyph glyph-name="u" unicode="u" horiz-adv-x="1198" d="M168 1080 L338 1080 L338 444 Q338 305 356 244 Q387 138 508 138 Q610 138 720 226 Q773 268 853 359 L853 1080 L1023 1080 L1023 0 L853 0 L853 181 Q752 88 707 58 Q590 -19 465 -19 Q285 -19 216 121 Q182 192 172 299 Q168 349 168 453 L168 1080 Z " />
<glyph glyph-name="v" unicode="v" horiz-adv-x="1016" d="M451 -25 L24 1080 L203 1080 L508 246 L813 1080 L992 1080 L565 -25 L451 -25 Z " />
<glyph glyph-name="w" unicode="w" horiz-adv-x="1582" d="M377 -25 L55 1080 L228 1080 L452 276 L745 1080 L837 1080 L1130 276 L1354 1080 L1527 1080 L1205 -25 L1088 -25 L791 797 L494 -25 L377 -25 Z " />
<glyph glyph-name="x" unicode="x" horiz-adv-x="1009" d="M401 577 L49 1080 L241 1080 L515 692 L775 1080 L957 1080 L593 580 L1000 0 L807 0 L480 464 L185 0 L2 0 L401 577 Z " />
<glyph glyph-name="y" unicode="y" horiz-adv-x="1016" d="M425 41 L24 1080 L203 1080 L508 246 L812 1080 L992 1080 L541 -86 Q480 -241 450 -290 Q379 -406 265 -428 Q215 -438 125 -439 L125 -291 Q229 -290 268 -264 Q322 -228 365 -115 L425 41 Z " />
<glyph glyph-name="z" unicode="z" horiz-adv-x="943" d="M41 0 L41 134 L654 933 L93 933 L93 1080 L862 1080 L862 957 L243 147 L878 147 L878 0 L41 0 Z " />
<glyph glyph-name="braceleft" unicode="&#x7b;" horiz-adv-x="857" d="M304 644 Q416 603 450 533 Q485 461 485 296 L485 30 Q485 -135 532 -179 Q579 -223 701 -223 L751 -223 L751 -356 L682 -356 Q542 -356 480 -336 Q373 -302 338 -197 Q315 -127 315 14 L315 278 Q315 445 270 506 Q233 555 163 569 Q138 574 82 577 L82 712 Q167 715 209 734 Q279 764 300 844 Q315 903 315 1011 L315 1199 Q315 1348 339 1418 Q376 1523 492 1553 Q554 1569 682 1569 L751 1569 L751 1436 L700 1436 Q575 1436 531 1394 Q485 1351 485 1183 L485 984 Q485 826 450 755 Q414 683 304 644 Z " />
<glyph glyph-name="bar" unicode="&#x7c;" horiz-adv-x="689" d="M260 -461 L260 1566 L426 1566 L426 -461 L260 -461 Z " />
<glyph glyph-name="braceright" unicode="&#x7d;" horiz-adv-x="857" d="M553 644 Q442 683 407 755 Q372 827 372 984 L372 1183 Q372 1351 326 1394 Q282 1436 157 1436 L106 1436 L106 1569 L175 1569 Q318 1569 382 1548 Q493 1511 523 1400 Q542 1331 542 1199 L542 1011 Q542 849 582 789 Q616 737 688 720 Q715 714 775 712 L775 577 Q694 573 654 557 Q582 529 560 451 Q542 390 542 278 L542 14 Q542 -143 512 -215 Q472 -313 361 -341 Q300 -356 175 -356 L106 -356 L106 -223 L156 -223 Q278 -223 325 -179 Q372 -135 372 30 L372 296 Q372 461 407 533 Q441 603 553 644 Z " />
<glyph glyph-name="asciitilde" unicode="&#x7e;" horiz-adv-x="1303" d="M261 604 L159 702 Q222 773 261 805 Q353 880 455 880 Q551 880 665 819 Q743 778 760 769 Q800 750 848 750 Q939 750 1045 870 L1145 776 Q1089 707 1041 668 Q950 594 851 594 Q762 594 636 658 Q575 688 540 704 Q498 722 457 722 Q370 722 261 604 Z " />
<glyph glyph-name="Adieresis" unicode="&#xc4;" horiz-adv-x="1343" d="M985 414 L359 414 L203 0 L21 0 L601 1475 L743 1475 L1323 0 L1141 0 L985 414 Z M932 558 L672 1249 L411 558 L932 558 Z M481 1850 Q529 1850 561 1815 Q589 1785 589 1744 Q589 1696 553 1665 Q521 1637 479 1637 Q431 1637 397 1672 Q369 1702 369 1744 Q369 1791 405 1823 Q436 1850 481 1850 Z M866 1850 Q913 1850 946 1815 Q974 1785 974 1744 Q974 1696 938 1665 Q906 1637 864 1637 Q816 1637 782 1672 Q754 1702 754 1744 Q754 1791 790 1823 Q821 1850 866 1850 Z " />
<glyph glyph-name="Aring" unicode="&#xc5;" horiz-adv-x="1343" d="M985 414 L359 414 L203 0 L21 0 L601 1475 L743 1475 L1323 0 L1141 0 L985 414 Z M932 558 L672 1249 L411 558 L932 558 Z M672 2016 Q786 2016 848 1947 Q904 1885 904 1788 Q904 1691 848 1629 Q786 1560 672 1560 Q557 1560 495 1629 Q439 1691 439 1791 Q439 1886 495 1947 Q559 2016 672 2016 Z M672 1918 Q550 1918 550 1790 Q550 1658 672 1658 Q793 1658 793 1788 Q793 1918 672 1918 Z " />
<glyph glyph-name="Ccedilla" unicode="&#xc7;" horiz-adv-x="1402" d="M1188 342 L1302 227 Q1197 89 1062 29 Q942 -23 780 -28 L744 -94 Q828 -101 865 -118 Q962 -162 962 -276 Q962 -388 876 -439 Q812 -477 709 -477 Q577 -477 459 -437 L496 -318 Q612 -357 704 -357 Q819 -357 819 -277 Q819 -200 693 -200 Q668 -200 621 -204 L604 -112 L655 -22 Q462 -3 334 109 Q216 213 157 397 Q110 541 110 728 Q110 1092 284 1303 Q448 1503 753 1503 Q1057 1503 1196 1315 Q1274 1210 1278 1046 L1107 1046 Q1101 1164 1037 1239 Q942 1350 754 1350 Q517 1350 399 1170 Q290 1002 290 728 Q290 447 416 281 Q533 126 765 126 Q931 126 1056 211 Q1107 246 1188 342 Z " />
<glyph glyph-name="Eacute" unicode="&#xc9;" horiz-adv-x="1193" d="M184 0 L184 1475 L1095 1475 L1095 1327 L360 1327 L360 840 L973 840 L973 693 L360 693 L360 148 L1111 148 L1111 0 L184 0 Z M530 1595 L727 1923 L919 1923 L652 1595 L530 1595 Z " />
<glyph glyph-name="Ntilde" unicode="&#xd1;" horiz-adv-x="1433" d="M184 0 L184 1475 L354 1475 L1075 374 L1075 1475 L1248 1475 L1248 -19 L1130 -19 L357 1175 L357 0 L184 0 Z M535 1654 L429 1654 Q473 1856 620 1856 Q674 1856 753 1811 Q825 1771 846 1771 Q897 1771 932 1855 L1038 1855 Q1013 1762 979 1717 Q929 1648 839 1648 Q780 1648 674 1710 Q635 1733 613 1733 Q565 1733 535 1654 Z " />
<glyph glyph-name="Odieresis" unicode="&#xd6;" horiz-adv-x="1543" d="M772 1504 Q1130 1504 1295 1262 Q1432 1061 1432 738 Q1432 415 1295 213 Q1131 -29 773 -29 Q411 -29 247 213 Q110 415 110 747 Q110 1064 247 1262 Q415 1504 772 1504 Z M771 1349 Q518 1349 402 1183 Q290 1024 290 746 Q290 546 335 422 Q399 244 535 175 Q629 126 778 126 Q1025 126 1140 292 Q1252 453 1252 738 Q1252 1349 771 1349 Z M581 1850 Q628 1850 661 1815 Q689 1785 689 1744 Q689 1696 653 1665 Q621 1637 579 1637 Q530 1637 497 1672 Q469 1703 469 1744 Q469 1790 505 1823 Q536 1850 581 1850 Z M965 1850 Q1013 1850 1045 1815 Q1073 1785 1073 1744 Q1073 1696 1037 1665 Q1005 1637 964 1637 Q915 1637 882 1672 Q854 1703 854 1744 Q854 1790 890 1823 Q920 1850 965 1850 Z " />
<glyph glyph-name="Udieresis" unicode="&#xdc;" horiz-adv-x="1397" d="M175 1475 L351 1475 L351 554 Q351 356 404 264 Q483 126 698 126 Q914 126 992 264 Q1045 357 1045 554 L1045 1475 L1221 1475 L1221 612 Q1221 402 1196 295 Q1158 135 1031 53 Q902 -29 698 -29 Q380 -29 255 163 Q200 249 183 392 Q175 466 175 612 L175 1475 Z M508 1850 Q556 1850 588 1815 Q616 1785 616 1744 Q616 1696 580 1665 Q548 1637 506 1637 Q458 1637 424 1672 Q396 1702 396 1744 Q396 1791 432 1823 Q463 1850 508 1850 Z M893 1850 Q940 1850 973 1815 Q1001 1785 1001 1744 Q1001 1696 965 1665 Q933 1637 891 1637 Q843 1637 809 1672 Q781 1702 781 1744 Q781 1791 817 1823 Q848 1850 893 1850 Z " />
<glyph glyph-name="aacute" unicode="&#xe1;" horiz-adv-x="1262" d="M926 0 L926 160 Q795 -32 571 -32 Q351 -32 223 132 Q100 290 100 540 Q100 790 223 948 Q352 1112 570 1112 Q791 1112 916 929 L916 1080 L1087 1080 L1087 0 L926 0 Z M589 965 Q446 965 359 847 Q273 730 273 540 Q273 350 359 233 Q445 115 589 115 Q744 115 835 249 Q916 370 916 535 Q916 714 835 831 Q741 965 589 965 Z M495 1225 L692 1553 L884 1553 L617 1225 L495 1225 Z " />
<glyph glyph-name="agrave" unicode="&#xe0;" horiz-adv-x="1262" d="M926 0 L926 160 Q795 -32 571 -32 Q351 -32 223 132 Q100 290 100 540 Q100 790 223 948 Q352 1112 570 1112 Q791 1112 916 929 L916 1080 L1087 1080 L1087 0 L926 0 Z M589 965 Q446 965 359 847 Q273 730 273 540 Q273 350 359 233 Q445 115 589 115 Q744 115 835 249 Q916 370 916 535 Q916 714 835 831 Q741 965 589 965 Z M630 1225 L363 1553 L555 1553 L752 1225 L630 1225 Z " />
<glyph glyph-name="acircumflex" unicode="&#xe2;" horiz-adv-x="1262" d="M926 0 L926 160 Q795 -32 571 -32 Q351 -32 223 132 Q100 290 100 540 Q100 790 223 948 Q352 1112 570 1112 Q791 1112 916 929 L916 1080 L1087 1080 L1087 0 L926 0 Z M589 965 Q446 965 359 847 Q273 730 273 540 Q273 350 359 233 Q445 115 589 115 Q744 115 835 249 Q916 370 916 535 Q916 714 835 831 Q741 965 589 965 Z M614 1436 L439 1225 L270 1225 L562 1553 L666 1553 L958 1225 L789 1225 L614 1436 Z " />
<glyph glyph-name="adieresis" unicode="&#xe4;" horiz-adv-x="1262" d="M926 0 L926 160 Q795 -32 571 -32 Q351 -32 223 132 Q100 290 100 540 Q100 790 223 948 Q352 1112 570 1112 Q791 1112 916 929 L916 1080 L1087 1080 L1087 0 L926 0 Z M589 965 Q446 965 359 847 Q273 730 273 540 Q273 350 359 233 Q445 115 589 115 Q744 115 835 249 Q916 370 916 535 Q916 714 835 831 Q741 965 589 965 Z M439 1486 Q487 1486 519 1451 Q547 1421 547 1380 Q547 1332 511 1301 Q479 1273 438 1273 Q389 1273 356 1308 Q328 1338 328 1380 Q328 1426 364 1459 Q395 1486 439 1486 Z M795 1486 Q842 1486 874 1451 Q902 1421 902 1380 Q902 1332 866 1301 Q834 1273 793 1273 Q744 1273 711 1308 Q683 1338 683 1380 Q683 1426 719 1459 Q750 1486 795 1486 Z " />
<glyph glyph-name="atilde" unicode="&#xe3;" horiz-adv-x="1262" d="M926 0 L926 160 Q795 -32 571 -32 Q351 -32 223 132 Q100 290 100 540 Q100 790 223 948 Q352 1112 570 1112 Q791 1112 916 929 L916 1080 L1087 1080 L1087 0 L926 0 Z M589 965 Q446 965 359 847 Q273 730 273 540 Q273 350 359 233 Q445 115 589 115 Q744 115 835 249 Q916 370 916 535 Q916 714 835 831 Q741 965 589 965 Z M416 1284 L310 1284 Q354 1486 501 1486 Q556 1486 634 1442 Q706 1401 727 1401 Q776 1401 813 1485 L919 1485 Q893 1391 860 1347 Q809 1278 721 1278 Q661 1278 555 1340 Q516 1363 494 1363 Q446 1363 416 1284 Z " />
<glyph glyph-name="aring" unicode="&#xe5;" horiz-adv-x="1262" d="M926 0 L926 160 Q795 -32 571 -32 Q351 -32 223 132 Q100 290 100 540 Q100 790 223 948 Q352 1112 570 1112 Q791 1112 916 929 L916 1080 L1087 1080 L1087 0 L926 0 Z M589 965 Q446 965 359 847 Q273 730 273 540 Q273 350 359 233 Q445 115 589 115 Q744 115 835 249 Q916 370 916 535 Q916 714 835 831 Q741 965 589 965 Z M616 1652 Q730 1652 792 1583 Q848 1522 848 1424 Q848 1327 792 1266 Q730 1197 616 1197 Q501 1197 439 1266 Q383 1328 383 1427 Q383 1523 439 1583 Q502 1652 616 1652 Z M616 1554 Q494 1554 494 1426 Q494 1295 615 1295 Q737 1295 737 1425 Q737 1554 616 1554 Z " />
<glyph glyph-name="ccedilla" unicode="&#xe7;" horiz-adv-x="1096" d="M625 -32 L591 -94 Q675 -101 712 -118 Q809 -162 809 -276 Q809 -388 723 -439 Q659 -477 556 -477 Q424 -477 306 -437 L343 -318 Q459 -357 551 -357 Q666 -357 666 -277 Q666 -200 540 -200 Q515 -200 468 -204 L451 -112 L500 -25 Q391 -10 305 48 Q100 188 100 524 Q100 787 226 952 Q349 1113 590 1113 Q840 1113 942 947 Q996 859 998 737 L840 737 Q820 965 592 965 Q431 965 349 839 Q273 721 273 532 Q273 324 374 212 Q461 115 607 115 Q781 115 928 260 L1015 136 Q925 48 819 7 Q743 -22 625 -32 Z " />
<glyph glyph-name="eacute" unicode="&#xe9;" horiz-adv-x="1183" d="M1086 496 L274 496 Q286 400 295 363.5 Q304 327 325 288 Q418 116 611 116 Q742 116 860 178 Q907 203 976 254 L1058 124 Q846 -32 613 -32 Q365 -32 227 133 Q100 284 100 530 Q100 788 234 949 Q369 1112 598 1112 Q782 1112 907 997 Q1084 836 1086 496 Z M914 629 Q894 758 851 825 Q760 970 596 970 Q334 970 277 629 L914 629 Z M457 1225 L654 1553 L846 1553 L579 1225 L457 1225 Z " />
<glyph glyph-name="egrave" unicode="&#xe8;" horiz-adv-x="1183" d="M1086 496 L274 496 Q286 400 295 363.5 Q304 327 325 288 Q418 116 611 116 Q742 116 860 178 Q907 203 976 254 L1058 124 Q846 -32 613 -32 Q365 -32 227 133 Q100 284 100 530 Q100 788 234 949 Q369 1112 598 1112 Q782 1112 907 997 Q1084 836 1086 496 Z M914 629 Q894 758 851 825 Q760 970 596 970 Q334 970 277 629 L914 629 Z M608 1225 L341 1553 L533 1553 L730 1225 L608 1225 Z " />
<glyph glyph-name="ecircumflex" unicode="&#xea;" horiz-adv-x="1183" d="M1086 496 L274 496 Q286 400 295 363.5 Q304 327 325 288 Q418 116 611 116 Q742 116 860 178 Q907 203 976 254 L1058 124 Q846 -32 613 -32 Q365 -32 227 133 Q100 284 100 530 Q100 788 234 949 Q369 1112 598 1112 Q782 1112 907 997 Q1084 836 1086 496 Z M914 629 Q894 758 851 825 Q760 970 596 970 Q334 970 277 629 L914 629 Z M593 1436 L418 1225 L249 1225 L541 1553 L645 1553 L937 1225 L768 1225 L593 1436 Z " />
<glyph glyph-name="edieresis" unicode="&#xeb;" horiz-adv-x="1183" d="M1086 496 L274 496 Q286 400 295 363.5 Q304 327 325 288 Q418 116 611 116 Q742 116 860 178 Q907 203 976 254 L1058 124 Q846 -32 613 -32 Q365 -32 227 133 Q100 284 100 530 Q100 788 234 949 Q369 1112 598 1112 Q782 1112 907 997 Q1084 836 1086 496 Z M914 629 Q894 758 851 825 Q760 970 596 970 Q334 970 277 629 L914 629 Z M418 1486 Q466 1486 498 1451 Q526 1421 526 1380 Q526 1332 490 1301 Q458 1273 417 1273 Q368 1273 335 1308 Q307 1338 307 1380 Q307 1426 343 1459 Q374 1486 418 1486 Z M774 1486 Q821 1486 853 1451 Q881 1421 881 1380 Q881 1332 845 1301 Q813 1273 772 1273 Q723 1273 690 1308 Q662 1338 662 1380 Q662 1426 698 1459 Q729 1486 774 1486 Z " />
<glyph glyph-name="iacute" unicode="&#xed;" horiz-adv-x="535" d="M183 0 L183 1080 L353 1080 L353 0 L183 0 Z M136 1225 L333 1553 L525 1553 L258 1225 L136 1225 Z " />
<glyph glyph-name="igrave" unicode="&#xec;" horiz-adv-x="535" d="M182 0 L182 1080 L352 1080 L352 0 L182 0 Z M275 1225 L8 1553 L200 1553 L397 1225 L275 1225 Z " />
<glyph glyph-name="icircumflex" unicode="&#xee;" horiz-adv-x="535" d="M182 0 L182 1080 L352 1080 L352 0 L182 0 Z M266 1436 L91 1225 L-78 1225 L214 1553 L318 1553 L610 1225 L441 1225 L266 1436 Z " />
<glyph glyph-name="idieresis" unicode="&#xef;" horiz-adv-x="535" d="M182 0 L182 1080 L352 1080 L352 0 L182 0 Z M91 1486 Q139 1486 171 1451 Q199 1421 199 1380 Q199 1332 163 1301 Q131 1273 90 1273 Q41 1273 8 1308 Q-20 1338 -20 1380 Q-20 1426 16 1459 Q47 1486 91 1486 Z M447 1486 Q494 1486 526 1451 Q554 1421 554 1380 Q554 1332 518 1301 Q486 1273 445 1273 Q396 1273 363 1308 Q335 1338 335 1380 Q335 1426 371 1459 Q402 1486 447 1486 Z " />
<glyph glyph-name="ntilde" unicode="&#xf1;" horiz-adv-x="1242" d="M175 0 L175 1080 L345 1080 L345 898 Q433 986 498 1030 Q620 1113 754 1113 Q948 1113 1022 969 Q1059 897 1070 785 Q1075 729 1075 627 L1075 0 L905 0 L905 636 Q905 780 882 846 Q844 956 711 956 Q601 956 485 862 Q423 813 345 721 L345 0 L175 0 Z M421 1284 L315 1284 Q359 1486 506 1486 Q561 1486 639 1442 Q711 1401 732 1401 Q781 1401 818 1485 L924 1485 Q898 1391 865 1347 Q814 1278 726 1278 Q666 1278 560 1340 Q521 1363 499 1363 Q451 1363 421 1284 Z " />
<glyph glyph-name="oacute" unicode="&#xf3;" horiz-adv-x="1240" d="M620 1112 Q856 1112 1001 948 Q1139 791 1139 540 Q1139 290 1001 132 Q857 -32 621 -32 Q382 -32 238 132 Q100 290 100 547 Q100 790 238 948 Q381 1112 620 1112 Z M620 965 Q447 965 352 831 Q273 720 273 546 Q273 360 352 249 Q446 115 620 115 Q793 115 887 249 Q966 360 966 540 Q966 721 887 831 Q792 965 620 965 Z M483 1225 L680 1553 L872 1553 L605 1225 L483 1225 Z " />
<glyph glyph-name="ograve" unicode="&#xf2;" horiz-adv-x="1240" d="M620 1112 Q856 1112 1001 948 Q1139 791 1139 540 Q1139 290 1001 132 Q857 -32 621 -32 Q382 -32 238 132 Q100 290 100 547 Q100 790 238 948 Q381 1112 620 1112 Z M620 965 Q447 965 352 831 Q273 720 273 546 Q273 360 352 249 Q446 115 620 115 Q793 115 887 249 Q966 360 966 540 Q966 721 887 831 Q792 965 620 965 Z M634 1225 L367 1553 L559 1553 L756 1225 L634 1225 Z " />
<glyph glyph-name="ocircumflex" unicode="&#xf4;" horiz-adv-x="1240" d="M620 1112 Q856 1112 1001 948 Q1139 791 1139 540 Q1139 290 1001 132 Q857 -32 621 -32 Q382 -32 238 132 Q100 290 100 547 Q100 790 238 948 Q381 1112 620 1112 Z M620 965 Q447 965 352 831 Q273 720 273 546 Q273 360 352 249 Q446 115 620 115 Q793 115 887 249 Q966 360 966 540 Q966 721 887 831 Q792 965 620 965 Z M618 1436 L443 1225 L274 1225 L566 1553 L670 1553 L962 1225 L793 1225 L618 1436 Z " />
<glyph glyph-name="odieresis" unicode="&#xf6;" horiz-adv-x="1240" d="M620 1112 Q856 1112 1001 948 Q1139 791 1139 540 Q1139 290 1001 132 Q857 -32 621 -32 Q382 -32 238 132 Q100 290 100 547 Q100 790 238 948 Q381 1112 620 1112 Z M620 965 Q447 965 352 831 Q273 720 273 546 Q273 360 352 249 Q446 115 620 115 Q793 115 887 249 Q966 360 966 540 Q966 721 887 831 Q792 965 620 965 Z M443 1486 Q491 1486 523 1451 Q551 1421 551 1380 Q551 1332 515 1301 Q483 1273 442 1273 Q393 1273 360 1308 Q332 1338 332 1380 Q332 1426 368 1459 Q399 1486 443 1486 Z M799 1486 Q846 1486 878 1451 Q906 1421 906 1380 Q906 1332 870 1301 Q838 1273 797 1273 Q748 1273 715 1308 Q687 1338 687 1380 Q687 1426 723 1459 Q754 1486 799 1486 Z " />
<glyph glyph-name="otilde" unicode="&#xf5;" horiz-adv-x="1240" d="M620 1112 Q856 1112 1001 948 Q1139 791 1139 540 Q1139 290 1001 132 Q857 -32 621 -32 Q382 -32 238 132 Q100 290 100 547 Q100 790 238 948 Q381 1112 620 1112 Z M620 965 Q447 965 352 831 Q273 720 273 546 Q273 360 352 249 Q446 115 620 115 Q793 115 887 249 Q966 360 966 540 Q966 721 887 831 Q792 965 620 965 Z M420 1284 L314 1284 Q358 1486 505 1486 Q560 1486 638 1442 Q710 1401 731 1401 Q780 1401 817 1485 L923 1485 Q897 1391 864 1347 Q813 1278 725 1278 Q665 1278 559 1340 Q520 1363 498 1363 Q450 1363 420 1284 Z " />
<glyph glyph-name="uacute" unicode="&#xfa;" horiz-adv-x="1198" d="M168 1080 L338 1080 L338 444 Q338 305 356 244 Q387 138 508 138 Q610 138 720 226 Q773 268 853 359 L853 1080 L1023 1080 L1023 0 L853 0 L853 181 Q752 88 707 58 Q590 -19 465 -19 Q285 -19 216 121 Q182 192 172 299 Q168 349 168 453 L168 1080 Z M497 1225 L694 1553 L886 1553 L619 1225 L497 1225 Z " />
<glyph glyph-name="ugrave" unicode="&#xf9;" horiz-adv-x="1198" d="M168 1080 L338 1080 L338 444 Q338 305 356 244 Q387 138 508 138 Q610 138 720 226 Q773 268 853 359 L853 1080 L1023 1080 L1023 0 L853 0 L853 181 Q752 88 707 58 Q590 -19 465 -19 Q285 -19 216 121 Q182 192 172 299 Q168 349 168 453 L168 1080 Z M613 1225 L346 1553 L538 1553 L735 1225 L613 1225 Z " />
<glyph glyph-name="ucircumflex" unicode="&#xfb;" horiz-adv-x="1198" d="M168 1080 L338 1080 L338 444 Q338 305 356 244 Q387 138 508 138 Q610 138 720 226 Q773 268 853 359 L853 1080 L1023 1080 L1023 0 L853 0 L853 181 Q752 88 707 58 Q590 -19 465 -19 Q285 -19 216 121 Q182 192 172 299 Q168 349 168 453 L168 1080 Z M598 1436 L423 1225 L254 1225 L546 1553 L650 1553 L942 1225 L773 1225 L598 1436 Z " />
<glyph glyph-name="udieresis" unicode="&#xfc;" horiz-adv-x="1198" d="M168 1080 L338 1080 L338 444 Q338 305 356 244 Q387 138 508 138 Q610 138 720 226 Q773 268 853 359 L853 1080 L1023 1080 L1023 0 L853 0 L853 181 Q752 88 707 58 Q590 -19 465 -19 Q285 -19 216 121 Q182 192 172 299 Q168 349 168 453 L168 1080 Z M423 1486 Q471 1486 503 1451 Q531 1421 531 1380 Q531 1332 495 1301 Q463 1273 422 1273 Q373 1273 340 1308 Q312 1338 312 1380 Q312 1426 348 1459 Q379 1486 423 1486 Z M779 1486 Q826 1486 858 1451 Q886 1421 886 1380 Q886 1332 850 1301 Q818 1273 777 1273 Q728 1273 695 1308 Q667 1338 667 1380 Q667 1426 703 1459 Q734 1486 779 1486 Z " />
<glyph glyph-name="dagger" unicode="&#x2020;" horiz-adv-x="1181" d="M514 948 L146 948 L146 1087 L514 1087 L514 1516 L664 1516 L664 1087 L1035 1087 L1035 948 L664 948 L664 -199 L514 -199 L514 948 Z " />
<glyph glyph-name="degree" unicode="&#xb0;" horiz-adv-x="740" d="M370 1536 Q522 1536 609 1443 Q685 1362 685 1235 Q685 1110 609 1028 Q523 935 371 935 Q218 935 131 1028 Q55 1110 55 1239 Q55 1363 131 1443 Q220 1536 370 1536 Z M367 1427 Q272 1427 222 1369 Q178 1318 178 1238 Q178 1153 222 1102 Q272 1044 368 1044 Q468 1044 518 1102 Q562 1153 562 1236 Q562 1319 518 1369 Q467 1427 367 1427 Z " />
<glyph glyph-name="cent" unicode="&#xa2;" horiz-adv-x="1303" d="M644 -26 L644 283 Q503 292 395 358 Q194 481 194 780 Q194 967 274 1096 Q391 1286 644 1304 L644 1607 L761 1607 L761 1303 Q916 1289 1003 1216 Q1112 1124 1114 959 L956 959 Q942 1123 761 1157 L761 431 Q914 449 1035 555 L1128 436 Q984 302 761 283 L761 -26 L644 -26 Z M644 438 L644 1155 Q532 1134 476 1084 Q367 985 367 790 Q367 573 516 482 Q554 458 644 438 Z " />
<glyph glyph-name="sterling" unicode="&#xa3;" horiz-adv-x="1303" d="M73 669 L73 803 L290 803 Q233 987 233 1085 Q233 1290 379 1402 Q513 1504 721 1504 Q993 1504 1118 1319 Q1192 1210 1195 1045 L1029 1045 Q1024 1165 967 1241 Q886 1352 718 1352 Q592 1352 508 1294 Q406 1224 406 1089 Q406 981 463 803 L790 803 L790 669 L491 669 Q522 532 522 453 Q522 366 496 301 Q493 295 460 227 Q650 133 827 133 Q993 133 1076 229 Q1131 292 1141 395 L1306 395 Q1286 226 1194 119 Q1070 -24 827 -24 Q591 -24 383 99 Q319 44 259 15 Q184 -20 73 -24 L73 142 Q148 155 188 174 Q349 252 349 475 Q349 548 318 669 L73 669 Z " />
<glyph glyph-name="section" unicode="&#xa7;" horiz-adv-x="1181" d="M327 952 Q228 1034 228 1173 Q228 1330 337 1423 Q431 1504 597 1504 Q965 1504 968 1165 L814 1165 Q807 1252 777 1291 Q722 1361 594 1361 Q500 1361 450 1315 Q398 1267 398 1187 Q398 1103 454 1063 Q501 1028 646 997 Q797 965 855 940 Q958 897 998 812 Q1024 756 1024 695 Q1024 553 892 455 Q992 369 992 209 Q992 30 872 -65 Q761 -153 565 -153 Q145 -153 141 217 L292 217 Q302 114 338 71 Q405 -10 558 -10 Q674 -10 744 37 Q822 90 822 200 Q822 290 770 338 Q734 371 678 387 Q626 401 526 423 Q328 467 253 534 Q213 569 192 629 Q175 674 175 724 Q175 873 327 952 Z M443 891 Q405 871 391 861 Q338 822 338 746 Q338 671 389 634 Q432 601 585 563 L775 516 Q861 569 861 669 Q861 750 800 790 Q766 812 741 818 L586 855 L443 891 Z " />
<glyph glyph-name="bullet" unicode="&#x2022;" horiz-adv-x="1169" d="M589 1008 Q714 1008 798 918 Q871 841 871 730 Q871 602 777 521 Q697 451 584 451 Q453 451 369 541 Q296 620 296 732 Q296 855 390 938 Q470 1008 589 1008 Z " />
<glyph glyph-name="paragraph" unicode="&#xb6;" horiz-adv-x="1319" d="M635 1329 L635 -422 L479 -422 L479 659 Q318 674 224 738 Q61 849 61 1065 Q61 1257 192 1371 Q271 1439 380 1462 Q446 1476 557 1476 L1048 1476 L1048 -422 L892 -422 L892 1329 L635 1329 Z " />
<glyph glyph-name="germandbls" unicode="&#xdf;" horiz-adv-x="1315" d="M175 0 L175 1062 Q175 1302 298 1428 Q416 1548 633 1548 Q836 1548 954 1449 Q1066 1354 1066 1195 Q1066 981 844 894 Q970 864 1049 797 Q1200 668 1200 440 Q1200 220 1084 96 Q965 -32 737 -32 Q654 -32 565 -15 L590 133 Q654 116 726 116 Q876 116 954 207 Q1027 293 1027 453 Q1027 665 870 756 Q804 795 699 803 Q670 805 609 807 L609 946 Q730 953 793 990 Q899 1053 899 1180 Q899 1291 825 1349 Q751 1407 633 1407 Q467 1407 395 1291 Q345 1211 345 1041 L345 0 L175 0 Z " />
<glyph glyph-name="registered" unicode="&#xae;" horiz-adv-x="1409" d="M519 937 L519 1475 L695 1475 Q802 1475 857 1451 Q942 1414 942 1316 Q942 1228 856 1187 Q876 1167 894 1122 L969 937 L847 937 L791 1072 Q777 1116 756 1135 Q737 1153 677 1153 L629 1153 L629 937 L519 937 Z M629 1240 L690 1240 Q763 1240 793 1255 Q829 1274 829 1314 Q829 1352 796 1370 Q768 1384 695 1384 L629 1384 L629 1240 Z M704 1773 Q958 1773 1134 1605 Q1306 1440 1306 1203 Q1306 966 1134 800 Q959 632 706 632 Q449 632 274 800 Q102 966 102 1210 Q102 1362 184 1494 Q270 1635 426 1711 Q553 1773 704 1773 Z M704 1667 Q493 1667 349 1527 Q217 1398 217 1209 Q217 1007 349 878 Q492 738 705 738 Q916 738 1059 878 Q1191 1007 1191 1203 Q1191 1401 1059 1527 Q912 1667 704 1667 Z " />
<glyph glyph-name="copyright" unicode="&#xa9;" horiz-adv-x="1883" d="M1279 848 L1157 848 Q1146 1006 959 1006 Q827 1006 767 922 Q710 843 710 724 Q710 600 777 526 Q841 455 959 455 Q1096 455 1224 546 L1296 455 Q1137 340 965 340 Q775 340 669 455 Q574 559 574 725 Q574 903 681 1016 Q780 1121 955 1121 Q1162 1121 1238 1006 Q1274 951 1279 848 Z M942 1520 Q1288 1520 1528 1289 Q1761 1063 1761 737 Q1761 412 1528 185 Q1289 -46 944 -46 Q595 -46 357 185 Q123 412 123 747 Q123 957 234 1137 Q352 1330 564 1435 Q737 1520 942 1520 Z M942 1387 Q650 1387 453 1191 Q271 1011 271 746 Q271 464 453 283 Q650 87 944 87 Q1234 87 1431 283 Q1613 464 1613 737 Q1613 1015 1431 1191 Q1229 1387 942 1387 Z " />
<glyph glyph-name="trademark" unicode="&#x2122;" horiz-adv-x="1584" d="M400 1372 L400 769 L276 769 L276 1372 L40 1372 L40 1475 L636 1475 L636 1372 L400 1372 Z M851 1258 L818 769 L694 769 L749 1475 L889 1475 L1082 975 L1274 1475 L1412 1475 L1467 769 L1343 769 L1310 1258 L1121 769 L1041 769 L851 1258 Z " />
<glyph glyph-name="acute" unicode="&#xb4;" horiz-adv-x="1024" d="M376 1225 L573 1553 L765 1553 L498 1225 L376 1225 Z " />
<glyph glyph-name="dieresis" unicode="&#xa8;" horiz-adv-x="1024" d="M336 1486 Q384 1486 416 1451 Q444 1421 444 1380 Q444 1332 408 1301 Q376 1273 335 1273 Q286 1273 253 1308 Q225 1338 225 1380 Q225 1426 261 1459 Q292 1486 336 1486 Z M692 1486 Q739 1486 771 1451 Q799 1421 799 1380 Q799 1332 763 1301 Q731 1273 690 1273 Q641 1273 608 1308 Q580 1338 580 1380 Q580 1426 616 1459 Q647 1486 692 1486 Z " />
<glyph glyph-name="notequal" unicode="&#x2260;" horiz-adv-x="1303" d="M158 505 L158 650 L526 650 L610 823 L158 823 L158 968 L678 968 L792 1207 L929 1143 L844 968 L1145 968 L1145 823 L777 823 L693 650 L1145 650 L1145 505 L625 505 L511 267 L374 330 L459 505 L158 505 Z " />
<glyph glyph-name="AE" unicode="&#xc6;" horiz-adv-x="1989" d="M995 480 L429 480 L119 0 L-73 0 L894 1475 L1859 1475 L1859 1327 L1171 1327 L1171 840 L1738 840 L1738 693 L1171 693 L1171 148 L1875 148 L1875 0 L995 0 L995 480 Z M995 623 L995 1356 L520 623 L995 623 Z " />
<glyph glyph-name="Oslash" unicode="&#xd8;" horiz-adv-x="1564" d="M279 183 Q121 394 121 736 Q121 1061 258 1263 Q423 1504 781 1504 Q1042 1504 1194 1383 L1292 1511 L1463 1511 L1290 1285 Q1443 1082 1443 741 Q1443 415 1306 213 Q1141 -29 781 -29 Q530 -29 377 87 L272 -51 L101 -51 L279 183 Z M390 328 L1092 1249 Q981 1349 783 1349 Q301 1349 301 736 Q301 480 390 328 Z M1179 1139 L478 220 Q588 126 781 126 Q1263 126 1263 738 Q1263 988 1179 1139 Z " />
<glyph glyph-name="infinity" unicode="&#x221e;" horiz-adv-x="1601" d="M801 616 Q744 534 692 491 Q586 403 449 403 Q299 403 210 494 Q125 581 125 717 Q125 856 210 941 Q301 1032 451 1032 Q596 1032 706 933 Q750 892 801 819 Q858 903 910 946 Q1015 1032 1150 1032 Q1300 1032 1391 941 Q1476 856 1476 718 Q1476 581 1391 494 Q1302 403 1152 403 Q1005 403 893 504 Q852 542 801 616 Z M732 718 L720 737 Q606 912 464 912 Q376 912 318 858 Q262 804 262 717 Q262 629 318 576 Q376 522 464 522 Q601 522 719 698 L732 718 Z M869 718 L882 698 Q999 522 1137 522 Q1225 522 1283 576 Q1339 629 1339 717 Q1339 805 1283 858 Q1226 912 1137 912 Q995 912 881 737 L869 718 Z " />
<glyph glyph-name="plusminus" unicode="&#xb1;" horiz-adv-x="1303" d="M158 679 L158 824 L576 824 L576 1203 L728 1203 L728 824 L1145 824 L1145 679 L728 679 L728 300 L576 300 L576 679 L158 679 Z M173 0 L173 145 L1130 145 L1130 0 L173 0 Z " />
<glyph glyph-name="lessequal" unicode="&#x2264;" horiz-adv-x="1303" d="M374 782 L1101 422 L1101 258 L199 729 L199 836 L1101 1307 L1101 1143 L374 782 Z M202 0 L202 149 L1101 149 L1101 0 L202 0 Z " />
<glyph glyph-name="greaterequal" unicode="&#x2265;" horiz-adv-x="1303" d="M929 782 L202 1143 L202 1307 L1104 836 L1104 729 L202 258 L202 422 L929 782 Z M202 0 L202 149 L1101 149 L1101 0 L202 0 Z " />
<glyph glyph-name="yen" unicode="&#xa5;" horiz-adv-x="1303" d="M563 0 L563 344 L201 344 L201 461 L563 461 L563 616 L201 616 L201 733 L494 733 L40 1475 L233 1475 L651 781 L1069 1475 L1261 1475 L807 733 L1101 733 L1101 616 L739 616 L739 461 L1101 461 L1101 344 L739 344 L739 0 L563 0 Z " />
<glyph glyph-name="mu" unicode="&#xb5;" horiz-adv-x="1303" d="M224 1080 L394 1080 L394 426 Q394 289 413 233 Q444 139 569 139 Q670 139 778 219 Q836 262 909 341 L909 1080 L1079 1080 L1079 0 L909 0 L909 167 Q824 88 772 55 Q661 -17 539 -17 Q459 -17 393 21 L394 -439 L224 -439 L224 1080 Z " />
<glyph glyph-name="partialdiff" unicode="&#x2202;" horiz-adv-x="1303" d="M830 1013 Q682 1221 395 1449 L490 1543 Q747 1349 888 1186 Q1171 856 1171 521 Q1171 274 1034 125 Q890 -31 652 -31 Q414 -31 270 125 Q133 274 133 512 Q133 751 270 902 Q341 980 443 1021 Q532 1057 630 1057 Q732 1057 830 1013 Z M651 913 Q481 913 384 788 Q306 686 306 514 Q306 343 384 241 Q480 116 652 116 Q824 116 920 241 Q998 343 998 509 Q998 685 920 788 Q824 913 651 913 Z " />
<glyph glyph-name="summation" unicode="&#x2211;" horiz-adv-x="1306" d="M1213 1572 L1213 1430 L321 1430 L838 643 L265 -214 L1234 -214 L1234 -356 L68 -356 L68 -219 L640 643 L116 1441 L116 1572 L1213 1572 Z " />
<glyph glyph-name="product" unicode="&#x220f;" horiz-adv-x="1476" d="M1109 1430 L366 1430 L366 -356 L195 -356 L195 1572 L1280 1572 L1280 -356 L1109 -356 L1109 1430 Z " />
<glyph glyph-name="integral" unicode="&#x222b;" horiz-adv-x="774" d="M49 -342 L80 -199 Q125 -216 163 -216 Q258 -216 287 -145 Q302 -107 302 41 L302 1146 Q302 1270 308 1327.5 Q314 1385 333 1431 Q364 1507 440 1547 Q499 1578 587 1578 Q644 1578 721 1559 L690 1417 Q644 1435 604 1435 Q512 1435 483 1362 Q469 1324 469 1205 L469 73 Q469 -80 457 -145 Q420 -359 166 -359 Q106 -359 49 -342 Z " />
<glyph glyph-name="ordfeminine" unicode="&#xaa;" horiz-adv-x="788" d="M527 856 L527 924 Q493 891 464 875 Q398 839 296 839 Q56 839 56 1036 Q56 1163 156 1209 Q217 1237 353 1237 Q401 1237 505 1232 L505 1272 Q505 1333 468 1361 Q432 1387 351 1387 Q259 1387 153 1348 L106 1464 Q231 1506 358 1506 Q537 1506 606 1422 Q653 1364 653 1249 L653 856 L527 856 Z M505 1125 Q426 1131 365 1131 Q275 1131 244 1113 Q205 1090 205 1039 Q205 950 327 950 Q431 950 482 1008 Q505 1034 505 1078 L505 1125 Z " />
<glyph glyph-name="ordmasculine" unicode="&#xba;" horiz-adv-x="792" d="M397 1506 Q558 1506 654 1413 Q748 1323 748 1173 Q748 1023 654 933 Q558 840 398 840 Q234 840 139 933 Q45 1023 45 1178 Q45 1324 139 1413 Q236 1506 397 1506 Z M397 1385 Q299 1385 243 1317 Q195 1259 195 1176 Q195 1087 243 1029 Q299 961 397 961 Q494 961 550 1029 Q598 1087 598 1173 Q598 1259 550 1317 Q494 1385 397 1385 Z " />
<glyph glyph-name="uni2126" unicode="&#x2126;" horiz-adv-x="1607" d="M108 0 L108 133 L419 133 Q300 209 239 282 Q94 455 94 749 Q94 1064 253 1267 Q438 1505 802 1505 Q1166 1505 1351 1267 Q1510 1064 1510 748 Q1510 454 1361 276 Q1295 196 1185 133 L1496 133 L1496 0 L894 0 L894 162 Q1330 241 1330 756 Q1330 1030 1201 1188 Q1068 1350 802 1350 Q536 1350 403 1188 Q274 1030 274 754 Q274 413 478 262 Q583 184 710 162 L710 0 L108 0 Z " />
<glyph glyph-name="ae" unicode="&#xe6;" horiz-adv-x="1924" d="M842 643 L842 709 Q842 845 799 900 Q743 971 574 971 Q447 971 396 913 Q364 878 346 796 L187 796 Q204 928 265 1001 Q357 1112 577 1112 Q770 1112 864 1046 Q929 1001 960 911 Q1089 1112 1340 1112 Q1528 1112 1656 992 Q1827 831 1830 496 L1009 496 Q1021 361 1061 288 Q1155 115 1350 115 Q1486 115 1607 179 Q1652 203 1721 254 L1802 124 Q1593 -33 1359 -33 Q1085 -33 942 199 Q903 130 830 73 Q693 -32 478 -32 Q92 -32 92 304 Q92 520 244 603 Q339 655 558 655 Q614 655 780 646 L842 643 Z M845 508 Q725 522 565 522 Q396 522 338 483 Q263 433 263 312 Q263 210 316 162 Q373 112 502 112 Q715 112 802 232 Q845 292 845 400 L845 508 Z M1655 630 Q1634 759 1592 825 Q1501 969 1334 969 Q1150 969 1062 798 Q1028 733 1012 630 L1655 630 Z " />
<glyph glyph-name="oslash" unicode="&#xf8;" horiz-adv-x="1241" d="M231 140 Q101 305 101 540 Q101 791 239 948 Q383 1112 622 1112 Q794 1112 923 1018 L1002 1117 L1153 1117 L1011 937 Q1140 785 1140 539 Q1140 290 1002 132 Q858 -32 619 -32 Q450 -32 320 60 L239 -42 L87 -42 L231 140 Z M338 278 L827 894 Q733 965 622 965 Q447 965 353 831 Q274 719 274 536 Q274 412 316 322 Q324 302 338 278 Z M905 800 L416 184 Q507 115 620 115 Q794 115 888 249 Q967 360 967 546 Q967 663 925 756 Q917 774 905 800 Z " />
<glyph glyph-name="questiondown" unicode="&#xbf;" horiz-adv-x="1095" d="M641 952 L641 886 Q641 745 597 671 Q567 620 518 585 Q510 579 390 510 Q299 456 263 396 Q220 326 220 223 Q220 109 289 48 Q364 -19 496 -19 Q661 -19 740 92 Q784 153 805 284 L967 284 Q954 174 932 114 Q883 -19 777 -93 Q666 -171 490 -171 Q288 -171 169 -66 Q47 41 47 231 Q47 418 155 526 Q210 580 358 665 Q443 713 465 765 Q482 805 482 873 L482 952 L641 952 Z M562 1393 Q619 1393 657 1352 Q690 1317 690 1268 Q690 1213 648 1177 Q611 1145 560 1145 Q506 1145 468 1186 Q435 1221 435 1269 Q435 1324 477 1361 Q513 1393 562 1393 Z " />
<glyph glyph-name="exclamdown" unicode="&#xa1;" horiz-adv-x="698" d="M426 952 L449 -138 L249 -138 L272 952 L426 952 Z M349 1393 Q406 1393 444 1352 Q477 1317 477 1268 Q477 1213 435 1177 Q398 1145 347 1145 Q293 1145 255 1186 Q222 1221 222 1269 Q222 1324 264 1361 Q300 1393 349 1393 Z " />
<glyph glyph-name="logicalnot" unicode="&#xac;" horiz-adv-x="1303" d="M203 667 L203 811 L1032 811 L1032 285 L880 285 L880 667 L203 667 Z " />
<glyph glyph-name="radical" unicode="&#x221a;" horiz-adv-x="1303" d="M499 0 L269 611 L111 611 L111 749 L400 749 L583 233 L1027 1764 L1562 1764 L1562 1625 L1158 1625 L674 0 L499 0 Z " />
<glyph glyph-name="florin" unicode="&#x192;" horiz-adv-x="1303" d="M353 731 L353 870 L579 870 L641 1169 Q663 1279 678.5 1322.5 Q694 1366 725 1408 Q798 1506 942 1506 Q1034 1506 1136 1459 L1094 1326 Q1005 1362 958 1362 Q883 1362 846 1296 Q826 1262 806 1163 L745 870 L936 870 L936 731 L722 731 L605 71 Q574 -103 528 -187 Q449 -331 284 -331 Q199 -331 98 -290 L138 -151 Q211 -181 260 -181 Q346 -181 392 -91 Q423 -31 447 103 L556 731 L353 731 Z " />
<glyph glyph-name="approxequal" unicode="&#x2248;" horiz-adv-x="1303" d="M301 776 L199 868 Q260 937 301 971 Q393 1046 495 1046 Q592 1046 705 985 Q783 943 800 935 Q840 916 888 916 Q979 916 1085 1036 L1185 947 Q1129 878 1081 839 Q990 765 891 765 Q802 765 676 829 Q615 860 580 876 Q538 894 497 894 Q410 894 301 776 Z M301 441 L199 533 Q261 602 301 636 Q393 711 495 711 Q591 711 705 650 Q782 610 800 601 Q840 582 888 582 Q980 582 1085 701 L1185 613 Q1129 544 1081 505 Q990 431 891 431 Q802 431 676 495 Q615 525 580 541 Q538 559 497 559 Q410 559 301 441 Z " />
<glyph glyph-name="Delta" unicode="&#x2206;" horiz-adv-x="1303" d="M1327 0 L-23 0 L583 1475 L722 1475 L1327 0 Z M1092 145 L652 1249 L212 145 L1092 145 Z " />
<glyph glyph-name="guillemotleft" unicode="&#xab;" horiz-adv-x="881" d="M607 574 L847 205 L691 205 L443 574 L691 943 L847 943 L607 574 Z M241 574 L481 205 L325 205 L77 574 L325 943 L481 943 L241 574 Z " />
<glyph glyph-name="guillemotright" unicode="&#xbb;" horiz-adv-x="881" d="M274 574 L34 943 L190 943 L438 574 L190 205 L34 205 L274 574 Z M640 574 L400 943 L556 943 L804 574 L556 205 L400 205 L640 574 Z " />
<glyph glyph-name="ellipsis" unicode="&#x2026;" horiz-adv-x="1953" d="M323 219 Q377 219 415 178 Q448 143 448 95 Q448 40 406 3 Q370 -29 321 -29 Q263 -29 226 12 Q193 47 193 96 Q193 150 235 187 Q272 219 323 219 Z M979 219 Q1033 219 1071 178 Q1104 143 1104 95 Q1104 40 1062 3 Q1026 -29 977 -29 Q920 -29 882 12 Q849 47 849 96 Q849 151 891 187 Q928 219 979 219 Z M1635 219 Q1689 219 1727 178 Q1760 143 1760 95 Q1760 40 1718 3 Q1682 -29 1633 -29 Q1576 -29 1538 12 Q1505 47 1505 96 Q1505 151 1547 187 Q1584 219 1635 219 Z " />
<glyph glyph-name="Agrave" unicode="&#xc0;" horiz-adv-x="1343" d="M985 414 L359 414 L203 0 L21 0 L601 1475 L743 1475 L1323 0 L1141 0 L985 414 Z M932 558 L672 1249 L411 558 L932 558 Z M663 1595 L396 1923 L588 1923 L785 1595 L663 1595 Z " />
<glyph glyph-name="Atilde" unicode="&#xc3;" horiz-adv-x="1343" d="M985 414 L359 414 L203 0 L21 0 L601 1475 L743 1475 L1323 0 L1141 0 L985 414 Z M932 558 L672 1249 L411 558 L932 558 Z M472 1654 L366 1654 Q410 1856 557 1856 Q611 1856 690 1811 Q762 1771 783 1771 Q834 1771 869 1855 L975 1855 Q950 1762 916 1717 Q866 1648 776 1648 Q717 1648 611 1710 Q572 1733 550 1733 Q502 1733 472 1654 Z " />
<glyph glyph-name="Otilde" unicode="&#xd5;" horiz-adv-x="1543" d="M772 1504 Q1130 1504 1295 1262 Q1432 1061 1432 738 Q1432 415 1295 213 Q1131 -29 773 -29 Q411 -29 247 213 Q110 415 110 747 Q110 1064 247 1262 Q415 1504 772 1504 Z M771 1349 Q518 1349 402 1183 Q290 1024 290 746 Q290 546 335 422 Q399 244 535 175 Q629 126 778 126 Q1025 126 1140 292 Q1252 453 1252 738 Q1252 1349 771 1349 Z M572 1654 L466 1654 Q510 1856 657 1856 Q711 1856 790 1811 Q862 1771 883 1771 Q934 1771 969 1855 L1075 1855 Q1050 1762 1016 1717 Q966 1648 876 1648 Q817 1648 711 1710 Q672 1733 650 1733 Q602 1733 572 1654 Z " />
<glyph glyph-name="OE" unicode="&#x152;" horiz-adv-x="2092" d="M1274 148 L1979 148 L1979 0 L1276 0 Q1207 0 981 -14 Q927 -17 863 -17 Q506 -17 312 181 Q109 388 109 738 Q109 1114 342 1323 Q532 1492 863 1492 Q934 1492 1088 1482 Q1206 1475 1282 1475 L1963 1475 L1963 1327 L1274 1327 L1274 840 L1841 840 L1841 693 L1274 693 L1274 148 Z M1098 148 L1098 1327 Q981 1343 869 1343 Q596 1343 441 1182 Q289 1023 289 739 Q289 426 469 267 Q622 132 874 132 Q973 132 1098 148 Z " />
<glyph glyph-name="oe" unicode="&#x153;" horiz-adv-x="2072" d="M1060 245 Q1017 163 972 114 Q840 -32 621 -32 Q384 -32 239 132 Q99 290 99 540 Q99 790 239 948 Q384 1112 621 1112 Q924 1112 1061 833 Q1099 911 1141 963 Q1263 1112 1481 1112 Q1665 1112 1792 996 Q1969 833 1970 496 L1150 496 Q1163 359 1202 288 Q1296 116 1492 116 Q1626 116 1746 179 Q1792 203 1862 254 L1943 124 Q1730 -32 1496 -32 Q1271 -32 1143 115 Q1098 166 1060 245 Z M624 965 Q451 965 353 831 Q272 720 272 540 Q272 361 353 249 Q450 115 624 115 Q799 115 896 249 Q977 361 977 535 Q977 721 896 831 Q797 965 624 965 Z M1796 630 Q1775 758 1734 824 Q1642 969 1475 969 Q1290 969 1202 797 Q1170 735 1153 630 L1796 630 Z " />
<glyph glyph-name="endash" unicode="&#x2013;" horiz-adv-x="911" d="M53 540 L53 687 L858 687 L858 540 L53 540 Z " />
<glyph glyph-name="emdash" unicode="&#x2014;" horiz-adv-x="1303" d="M-90 540 L-90 687 L1392 687 L1392 540 L-90 540 Z " />
<glyph glyph-name="quotedblleft" unicode="&#x201c;" horiz-adv-x="871" d="M94 1029 L287 1475 L430 1475 L306 1029 L94 1029 Z M437 1029 L629 1475 L773 1475 L647 1029 L437 1029 Z " />
<glyph glyph-name="quotedblright" unicode="&#x201d;" horiz-adv-x="871" d="M107 1029 L231 1475 L443 1475 L250 1029 L107 1029 Z M450 1029 L574 1475 L786 1475 L593 1029 L450 1029 Z " />
<glyph glyph-name="quoteleft" unicode="&#x2018;" horiz-adv-x="528" d="M94 1029 L287 1475 L430 1475 L306 1029 L94 1029 Z " />
<glyph glyph-name="quoteright" unicode="&#x2019;" horiz-adv-x="528" d="M106 1029 L230 1475 L442 1475 L249 1029 L106 1029 Z " />
<glyph glyph-name="divide" unicode="&#xf7;" horiz-adv-x="1303" d="M158 664 L158 809 L1145 809 L1145 664 L158 664 Z M654 1212 Q705 1212 741 1174 Q772 1141 772 1096 Q772 1044 732 1010 Q698 980 652 980 Q598 980 562 1018 Q531 1051 531 1097 Q531 1148 571 1182 Q605 1212 654 1212 Z M654 493 Q705 493 741 455 Q772 422 772 377 Q772 325 732 291 Q698 261 652 261 Q598 261 562 299 Q531 332 531 378 Q531 429 571 463 Q605 493 654 493 Z " />
<glyph glyph-name="lozenge" unicode="&#x25ca;" horiz-adv-x="1190" d="M31 704 L595 1465 L1158 704 L595 -57 L31 704 Z M221 704 L595 201 L967 704 L595 1207 L221 704 Z " />
<glyph glyph-name="ydieresis" unicode="&#xff;" horiz-adv-x="1016" d="M425 41 L24 1080 L203 1080 L508 246 L812 1080 L992 1080 L541 -86 Q480 -241 450 -290 Q379 -406 265 -428 Q215 -438 125 -439 L125 -291 Q229 -290 268 -264 Q322 -228 365 -115 L425 41 Z M332 1486 Q380 1486 412 1451 Q440 1421 440 1380 Q440 1332 404 1301 Q372 1273 331 1273 Q282 1273 249 1308 Q221 1338 221 1380 Q221 1426 257 1459 Q288 1486 332 1486 Z M688 1486 Q735 1486 767 1451 Q795 1421 795 1380 Q795 1332 759 1301 Q727 1273 686 1273 Q637 1273 604 1308 Q576 1338 576 1380 Q576 1426 612 1459 Q643 1486 688 1486 Z " />
<glyph glyph-name="Ydieresis" unicode="&#x178;" horiz-adv-x="1130" d="M477 0 L477 577 L-25 1475 L167 1475 L565 751 L962 1475 L1154 1475 L653 577 L653 0 L477 0 Z M375 1850 Q423 1850 455 1815 Q483 1785 483 1744 Q483 1696 447 1665 Q415 1637 373 1637 Q325 1637 291 1672 Q263 1702 263 1744 Q263 1791 299 1823 Q330 1850 375 1850 Z M760 1850 Q807 1850 840 1815 Q868 1785 868 1744 Q868 1696 832 1665 Q800 1637 758 1637 Q710 1637 676 1672 Q648 1702 648 1744 Q648 1791 684 1823 Q715 1850 760 1850 Z " />
<glyph glyph-name="fraction" unicode="&#x2044;" horiz-adv-x="322" d="M-299 0 L469 1475 L621 1475 L-148 0 L-299 0 Z " />
<glyph glyph-name="Euro" unicode="&#x20ac;" horiz-adv-x="1303" d="M-69 516 L-24 633 L122 633 Q118 685 118 724 Q118 749 120 787 L-69 787 L-24 904 L131 904 Q159 1088 236 1220 Q404 1506 763 1506 Q1064 1506 1204 1323 Q1287 1215 1290 1051 L1123 1051 Q1116 1170 1049 1244 Q952 1353 765 1353 Q388 1353 313 904 L1046 904 L1001 787 L301 787 Q298 747 298 726 Q298 695 303 633 L936 633 L891 516 L321 516 Q411 125 781 125 Q944 125 1069 213 Q1124 252 1200 346 L1313 229 Q1225 113 1124 54 Q977 -31 773 -31 Q438 -31 269 194 Q171 325 136 516 L-69 516 Z " />
<glyph glyph-name="guilsinglleft" unicode="&#x2039;" horiz-adv-x="515" d="M241 574 L481 205 L325 205 L77 574 L325 943 L481 943 L241 574 Z " />
<glyph glyph-name="guilsinglright" unicode="&#x203a;" horiz-adv-x="515" d="M274 574 L34 943 L190 943 L438 574 L190 205 L34 205 L274 574 Z " />
<glyph glyph-name="fi" unicode="&#xfb01;" horiz-adv-x="1253" d="M243 0 L243 933 L82 933 L82 1080 L243 1081 L243 1122 Q243 1316 307 1411 Q387 1531 579 1531 Q662 1531 744 1516 L733 1374 Q656 1387 595 1387 Q518 1387 480 1357 Q413 1305 413 1123 L413 1080 L697 1080 L697 933 L413 933 L413 0 L243 0 Z M900 0 L900 1080 L1070 1080 L1070 0 L900 0 Z M987 1491 Q1036 1491 1071 1454 Q1100 1423 1100 1379 Q1100 1329 1062 1296 Q1029 1267 985 1267 Q934 1267 900 1304 Q870 1336 870 1380 Q870 1429 908 1463 Q940 1491 987 1491 Z " />
<glyph glyph-name="fl" unicode="&#xfb02;" horiz-adv-x="1236" d="M243 0 L243 933 L82 933 L82 1080 L243 1081 L243 1122 Q243 1316 307 1411 Q387 1531 579 1531 Q662 1531 744 1516 L733 1374 Q656 1387 595 1387 Q518 1387 480 1357 Q413 1305 413 1123 L413 1080 L697 1080 L697 933 L413 933 L413 0 L243 0 Z M892 0 L892 1516 L1062 1516 L1062 0 L892 0 Z " />
<glyph glyph-name="daggerdbl" unicode="&#x2021;" horiz-adv-x="1181" d="M514 951 L146 951 L146 1090 L514 1090 L514 1516 L664 1516 L664 1089 L1035 1089 L1035 950 L664 950 L664 382 L1035 382 L1035 239 L664 239 L664 -184 L514 -184 L514 238 L146 238 L146 381 L514 381 L514 951 Z " />
<glyph glyph-name="periodcentered" unicode="&#xb7;" horiz-adv-x="641" d="M325 738 Q379 738 417 697 Q450 662 450 614 Q450 559 408 522 Q371 490 323 490 Q266 490 228 531 Q195 566 195 615 Q195 669 237 706 Q273 738 325 738 Z " />
<glyph glyph-name="quotesinglbase" unicode="&#x201a;" horiz-adv-x="528" d="M89 -233 L213 212 L425 212 L232 -233 L89 -233 Z " />
<glyph glyph-name="quotedblbase" unicode="&#x201e;" horiz-adv-x="871" d="M84 -228 L208 217 L420 217 L227 -228 L84 -228 Z M427 -228 L551 217 L763 217 L570 -228 L427 -228 Z " />
<glyph glyph-name="perthousand" unicode="&#x2030;" horiz-adv-x="2605" d="M444 1506 Q628 1506 723 1396 Q815 1290 815 1118 Q815 946 723 839 Q629 729 441 729 Q258 729 164 839 Q72 946 72 1123 Q72 1290 164 1396 Q259 1506 444 1506 Z M444 1375 Q227 1375 227 1121 Q227 860 444 860 Q660 860 660 1118 Q660 1375 444 1375 Z M1319 748 Q1503 748 1598 638 Q1690 531 1690 359 Q1690 188 1598 81 Q1504 -29 1316 -29 Q1133 -29 1039 81 Q947 188 947 365 Q947 532 1039 638 Q1134 748 1319 748 Z M1319 617 Q1102 617 1102 363 Q1102 102 1319 102 Q1535 102 1535 359 Q1535 617 1319 617 Z M2161 748 Q2345 748 2440 638 Q2532 532 2532 359 Q2532 188 2440 81 Q2345 -29 2158 -29 Q1975 -29 1881 81 Q1789 188 1789 365 Q1789 532 1881 638 Q1976 748 2161 748 Z M2161 617 Q1944 617 1944 363 Q1944 102 2161 102 Q2377 102 2377 359 Q2377 617 2161 617 Z M365 0 L1235 1475 L1395 1475 L525 0 L365 0 Z " />
<glyph glyph-name="Acircumflex" unicode="&#xc2;" horiz-adv-x="1343" d="M985 414 L359 414 L203 0 L21 0 L601 1475 L743 1475 L1323 0 L1141 0 L985 414 Z M932 558 L672 1249 L411 558 L932 558 Z M671 1806 L496 1595 L327 1595 L619 1923 L723 1923 L1015 1595 L846 1595 L671 1806 Z " />
<glyph glyph-name="Ecircumflex" unicode="&#xca;" horiz-adv-x="1193" d="M184 0 L184 1475 L1095 1475 L1095 1327 L360 1327 L360 840 L973 840 L973 693 L360 693 L360 148 L1111 148 L1111 0 L184 0 Z M638 1806 L463 1595 L294 1595 L586 1923 L690 1923 L982 1595 L813 1595 L638 1806 Z " />
<glyph glyph-name="Aacute" unicode="&#xc1;" horiz-adv-x="1343" d="M985 414 L359 414 L203 0 L21 0 L601 1475 L743 1475 L1323 0 L1141 0 L985 414 Z M932 558 L672 1249 L411 558 L932 558 Z M549 1595 L746 1923 L938 1923 L671 1595 L549 1595 Z " />
<glyph glyph-name="Edieresis" unicode="&#xcb;" horiz-adv-x="1193" d="M184 0 L184 1475 L1095 1475 L1095 1327 L360 1327 L360 840 L973 840 L973 693 L360 693 L360 148 L1111 148 L1111 0 L184 0 Z M448 1850 Q496 1850 528 1815 Q556 1785 556 1744 Q556 1696 520 1665 Q488 1637 446 1637 Q398 1637 364 1672 Q336 1702 336 1744 Q336 1791 372 1823 Q403 1850 448 1850 Z M833 1850 Q880 1850 913 1815 Q941 1785 941 1744 Q941 1696 905 1665 Q873 1637 831 1637 Q783 1637 749 1672 Q721 1702 721 1744 Q721 1791 757 1823 Q788 1850 833 1850 Z " />
<glyph glyph-name="Egrave" unicode="&#xc8;" horiz-adv-x="1193" d="M184 0 L184 1475 L1095 1475 L1095 1327 L360 1327 L360 840 L973 840 L973 693 L360 693 L360 148 L1111 148 L1111 0 L184 0 Z M666 1595 L399 1923 L591 1923 L788 1595 L666 1595 Z " />
<glyph glyph-name="Iacute" unicode="&#xcd;" horiz-adv-x="545" d="M178 0 L178 1475 L354 1475 L354 0 L178 0 Z M139 1595 L336 1923 L528 1923 L261 1595 L139 1595 Z " />
<glyph glyph-name="Icircumflex" unicode="&#xce;" horiz-adv-x="545" d="M184 0 L184 1475 L360 1475 L360 0 L184 0 Z M271 1806 L96 1595 L-73 1595 L219 1923 L323 1923 L615 1595 L446 1595 L271 1806 Z " />
<glyph glyph-name="Idieresis" unicode="&#xcf;" horiz-adv-x="545" d="M184 0 L184 1475 L360 1475 L360 0 L184 0 Z M82 1850 Q130 1850 162 1815 Q190 1785 190 1744 Q190 1696 154 1665 Q122 1637 80 1637 Q32 1637 -2 1672 Q-30 1702 -30 1744 Q-30 1791 6 1823 Q37 1850 82 1850 Z M467 1850 Q514 1850 547 1815 Q575 1785 575 1744 Q575 1696 539 1665 Q507 1637 465 1637 Q417 1637 383 1672 Q355 1702 355 1744 Q355 1791 391 1823 Q422 1850 467 1850 Z " />
<glyph glyph-name="Igrave" unicode="&#xcc;" horiz-adv-x="545" d="M184 0 L184 1475 L360 1475 L360 0 L184 0 Z M282 1595 L15 1923 L207 1923 L404 1595 L282 1595 Z " />
<glyph glyph-name="Oacute" unicode="&#xd3;" horiz-adv-x="1543" d="M772 1504 Q1130 1504 1295 1262 Q1432 1061 1432 738 Q1432 415 1295 213 Q1131 -29 773 -29 Q411 -29 247 213 Q110 415 110 747 Q110 1064 247 1262 Q415 1504 772 1504 Z M771 1349 Q518 1349 402 1183 Q290 1024 290 746 Q290 546 335 422 Q399 244 535 175 Q629 126 778 126 Q1025 126 1140 292 Q1252 453 1252 738 Q1252 1349 771 1349 Z M635 1595 L832 1923 L1024 1923 L757 1595 L635 1595 Z " />
<glyph glyph-name="Ocircumflex" unicode="&#xd4;" horiz-adv-x="1543" d="M772 1504 Q1130 1504 1295 1262 Q1432 1061 1432 738 Q1432 415 1295 213 Q1131 -29 773 -29 Q411 -29 247 213 Q110 415 110 747 Q110 1064 247 1262 Q415 1504 772 1504 Z M771 1349 Q518 1349 402 1183 Q290 1024 290 746 Q290 546 335 422 Q399 244 535 175 Q629 126 778 126 Q1025 126 1140 292 Q1252 453 1252 738 Q1252 1349 771 1349 Z M770 1806 L595 1595 L426 1595 L718 1923 L822 1923 L1114 1595 L945 1595 L770 1806 Z " />
<glyph glyph-name="Ograve" unicode="&#xd2;" horiz-adv-x="1543" d="M772 1504 Q1130 1504 1295 1262 Q1432 1061 1432 738 Q1432 415 1295 213 Q1131 -29 773 -29 Q411 -29 247 213 Q110 415 110 747 Q110 1064 247 1262 Q415 1504 772 1504 Z M771 1349 Q518 1349 402 1183 Q290 1024 290 746 Q290 546 335 422 Q399 244 535 175 Q629 126 778 126 Q1025 126 1140 292 Q1252 453 1252 738 Q1252 1349 771 1349 Z M785 1595 L518 1923 L710 1923 L907 1595 L785 1595 Z " />
<glyph glyph-name="Uacute" unicode="&#xda;" horiz-adv-x="1397" d="M175 1475 L351 1475 L351 554 Q351 356 404 264 Q483 126 698 126 Q914 126 992 264 Q1045 357 1045 554 L1045 1475 L1221 1475 L1221 612 Q1221 402 1196 295 Q1158 135 1031 53 Q902 -29 698 -29 Q380 -29 255 163 Q200 249 183 392 Q175 466 175 612 L175 1475 Z M576 1595 L773 1923 L965 1923 L698 1595 L576 1595 Z " />
<glyph glyph-name="Ucircumflex" unicode="&#xdb;" horiz-adv-x="1397" d="M175 1475 L351 1475 L351 554 Q351 356 404 264 Q483 126 698 126 Q914 126 992 264 Q1045 357 1045 554 L1045 1475 L1221 1475 L1221 612 Q1221 402 1196 295 Q1158 135 1031 53 Q902 -29 698 -29 Q380 -29 255 163 Q200 249 183 392 Q175 466 175 612 L175 1475 Z M697 1806 L522 1595 L353 1595 L645 1923 L749 1923 L1041 1595 L872 1595 L697 1806 Z " />
<glyph glyph-name="Ugrave" unicode="&#xd9;" horiz-adv-x="1397" d="M175 1475 L351 1475 L351 554 Q351 356 404 264 Q483 126 698 126 Q914 126 992 264 Q1045 357 1045 554 L1045 1475 L1221 1475 L1221 612 Q1221 402 1196 295 Q1158 135 1031 53 Q902 -29 698 -29 Q380 -29 255 163 Q200 249 183 392 Q175 466 175 612 L175 1475 Z M713 1595 L446 1923 L638 1923 L835 1595 L713 1595 Z " />
<glyph glyph-name="dotlessi" unicode="&#x131;" horiz-adv-x="535" d="M182 0 L182 1080 L352 1080 L352 0 L182 0 Z " />
<glyph glyph-name="circumflex" unicode="&#x2c6;" horiz-adv-x="1024" d="M511 1436 L336 1225 L167 1225 L459 1553 L563 1553 L855 1225 L686 1225 L511 1436 Z " />
<glyph glyph-name="tilde" unicode="&#x2dc;" horiz-adv-x="1024" d="M313 1284 L207 1284 Q251 1486 398 1486 Q453 1486 531 1442 Q603 1401 624 1401 Q673 1401 710 1485 L816 1485 Q790 1391 757 1347 Q706 1278 618 1278 Q558 1278 452 1340 Q413 1363 391 1363 Q343 1363 313 1284 Z " />
<glyph glyph-name="macron" unicode="&#xaf;" horiz-adv-x="1024" d="M248 1315 L248 1452 L776 1452 L776 1315 L248 1315 Z " />
<glyph glyph-name="breve" unicode="&#x2d8;" horiz-adv-x="1024" d="M226 1530 L326 1530 Q333 1454 367 1421 Q413 1375 512 1375 Q619 1375 663 1429 Q689 1461 695 1530 L797 1530 Q784 1393 727 1327 Q660 1247 513 1247 Q348 1247 281 1344 Q236 1410 226 1530 Z " />
<glyph glyph-name="dotaccent" unicode="&#x2d9;" horiz-adv-x="1024" d="M514 1491 Q563 1491 598 1454 Q627 1423 627 1379 Q627 1329 589 1296 Q556 1267 512 1267 Q461 1267 427 1304 Q397 1336 397 1380 Q397 1429 435 1463 Q467 1491 514 1491 Z " />
<glyph glyph-name="ring" unicode="&#x2da;" horiz-adv-x="1024" d="M513 1652 Q627 1652 689 1583 Q745 1522 745 1424 Q745 1327 689 1266 Q627 1197 513 1197 Q398 1197 336 1266 Q280 1328 280 1427 Q280 1523 336 1583 Q399 1652 513 1652 Z M513 1554 Q391 1554 391 1426 Q391 1295 512 1295 Q634 1295 634 1425 Q634 1554 513 1554 Z " />
<glyph glyph-name="cedilla" unicode="&#xb8;" horiz-adv-x="1024" d="M479 0 L607 0 L555 -94 Q639 -101 676 -118 Q773 -161 773 -275 Q773 -388 687 -439 Q623 -477 521 -477 Q388 -477 270 -437 L307 -318 Q421 -357 515 -357 Q630 -357 630 -277 Q630 -200 504 -200 Q479 -200 432 -204 L415 -112 L479 0 Z " />
<glyph glyph-name="hungarumlaut" unicode="&#x2dd;" horiz-adv-x="1024" d="M311 1225 L447 1553 L620 1553 L413 1225 L311 1225 Z M581 1225 L728 1553 L905 1553 L684 1225 L581 1225 Z " />
<glyph glyph-name="ogonek" unicode="&#x2db;" horiz-adv-x="1024" d="M560 0 L689 0 Q599 -70 563 -114 Q513 -175 513 -236 Q513 -318 605 -318 L708 -318 L708 -438 L607 -438 Q370 -438 370 -264 Q370 -178 455 -88 Q490 -52 560 0 Z " />
<glyph glyph-name="caron" unicode="&#x2c7;" horiz-adv-x="1024" d="M513 1341 L688 1553 L857 1553 L565 1225 L461 1225 L169 1553 L338 1553 L513 1341 Z " />
<glyph glyph-name="uni00A0" unicode="&#xa0;" horiz-adv-x="451" d="" />
<glyph glyph-name="currency" unicode="&#xa4;" horiz-adv-x="1303" d="M191 279 L102 371 L308 566 Q223 672 223 809 Q223 943 307 1051 L102 1245 L191 1336 L396 1140 Q510 1222 651 1222 Q794 1222 908 1140 L1110 1336 L1202 1245 L998 1051 Q1081 939 1081 810 Q1081 676 997 566 L1202 371 L1110 280 L907 477 Q787 396 652 396 Q516 396 397 477 L191 279 Z M652 1090 Q526 1090 439 1004 Q356 923 356 812 Q356 696 439 614 Q526 528 653 528 Q778 528 865 614 Q948 696 948 809 Q948 924 865 1004 Q776 1090 652 1090 Z " />
<glyph glyph-name="brokenbar" unicode="&#xa6;" horiz-adv-x="689" d="M267 873 L267 1475 L422 1475 L422 873 L267 873 Z M267 0 L267 602 L422 602 L422 0 L267 0 Z " />
<glyph glyph-name="uni00AD" unicode="&#xad;" horiz-adv-x="805" d="M123 541 L123 689 L683 689 L683 541 L123 541 Z " />
<glyph glyph-name="twosuperior" unicode="&#xb2;" horiz-adv-x="811" d="M45 819 Q57 910 94 964 Q145 1040 287 1152 Q459 1287 501 1335 Q552 1394 552 1448 Q552 1506 513 1538 Q469 1574 392 1574 Q285 1574 231 1499 Q208 1466 195 1393 L50 1393 Q72 1539 129 1601 Q217 1695 389 1695 Q537 1695 622 1632 Q706 1569 706 1451 Q706 1339 628 1259 Q576 1204 439 1104 Q341 1033 311 1006 Q280 979 250 940 L730 940 L730 819 L45 819 Z " />
<glyph glyph-name="threesuperior" unicode="&#xb3;" horiz-adv-x="811" d="M264 1212 L264 1326 Q380 1325 417 1330 Q488 1339 520 1369 Q551 1398 551 1458 Q551 1574 396 1574 Q245 1574 213 1448 L68 1448 Q85 1558 144 1616 Q224 1695 390 1695 Q540 1695 623 1631 Q701 1571 701 1461 Q701 1341 595 1278 Q734 1212 734 1066 Q734 803 391 803 Q190 803 104 898 Q57 952 44 1075 L190 1075 Q213 925 396 925 Q583 925 583 1061 Q583 1176 479 1201 Q435 1212 315 1212 Q298 1212 264 1212 Z " />
<glyph glyph-name="onesuperior" unicode="&#xb9;" horiz-adv-x="559" d="M244 819 L244 1534 L15 1458 L15 1586 L288 1679 L392 1679 L392 819 L244 819 Z " />
<glyph glyph-name="onequarter" unicode="&#xbc;" horiz-adv-x="1924" d="M370 614 L370 1329 L141 1254 L141 1382 L414 1475 L518 1475 L518 614 L370 614 Z M1477 0 L1477 179 L1040 179 L1040 278 L1320 860 L1483 860 L1210 300 L1477 300 L1477 618 L1621 618 L1621 300 L1763 300 L1763 179 L1621 179 L1621 0 L1477 0 Z M401 0 L1169 1475 L1321 1475 L552 0 L401 0 Z " />
<glyph glyph-name="onehalf" unicode="&#xbd;" horiz-adv-x="1922" d="M365 614 L365 1329 L136 1254 L136 1382 L409 1475 L513 1475 L513 614 L365 614 Z M1065 0 Q1077 91 1114 145 Q1164 221 1307 333 Q1479 467 1521 516 Q1572 575 1572 629 Q1572 687 1533 719 Q1489 755 1413 755 Q1244 755 1215 574 L1070 574 Q1091 720 1149 782 Q1237 876 1410 876 Q1557 876 1642 813 Q1726 751 1726 632 Q1726 521 1648 440 Q1596 385 1459 285 Q1360 213 1331 187 Q1301 161 1270 121 L1750 121 L1750 0 L1065 0 Z M376 0 L1145 1475 L1296 1475 L528 0 L376 0 Z " />
<glyph glyph-name="threequarters" unicode="&#xbe;" horiz-adv-x="1926" d="M296 1007 L296 1122 Q330 1121 347 1121 Q364 1121 367 1121 Q464 1121 511 1140 Q583 1168 583 1253 Q583 1370 428 1370 Q277 1370 245 1244 L100 1244 Q117 1354 176 1412 Q256 1491 422 1491 Q572 1491 655 1427 Q733 1367 733 1257 Q733 1136 627 1073 Q766 1007 766 861 Q766 598 423 598 Q221 598 136 693 Q89 747 76 870 L222 870 Q245 720 428 720 Q615 720 615 856 Q615 985 485 1001 Q435 1007 296 1007 Z M1545 0 L1545 179 L1109 179 L1109 278 L1388 860 L1551 860 L1279 300 L1545 300 L1545 618 L1689 618 L1689 300 L1831 300 L1831 179 L1689 179 L1689 0 L1545 0 Z M526 0 L1294 1475 L1446 1475 L677 0 L526 0 Z " />
<glyph glyph-name="Eth" unicode="&#xd0;" horiz-adv-x="1472" d="M190 846 L190 1475 L580 1475 Q927 1475 1128 1307 Q1362 1112 1362 737 Q1362 363 1128 168 Q927 0 577 0 L190 0 L190 712 L19 712 L19 846 L190 846 Z M366 846 L814 846 L814 712 L366 712 L366 148 L568 148 Q842 148 999 279 Q1182 430 1182 738 Q1182 1044 1000 1196 Q842 1327 566 1327 L366 1327 L366 846 Z " />
<glyph glyph-name="multiply" unicode="&#xd7;" horiz-adv-x="1303" d="M545 736 L240 1028 L346 1133 L651 842 L956 1133 L1061 1028 L756 736 L1061 445 L956 340 L651 631 L346 340 L240 445 L545 736 Z " />
<glyph glyph-name="Yacute" unicode="&#xdd;" horiz-adv-x="1130" d="M477 0 L477 577 L-25 1475 L167 1475 L565 751 L962 1475 L1154 1475 L653 577 L653 0 L477 0 Z M458 1595 L655 1923 L847 1923 L580 1595 L458 1595 Z " />
<glyph glyph-name="Thorn" unicode="&#xde;" horiz-adv-x="1269" d="M184 0 L184 1475 L360 1475 L360 1229 L591 1229 Q746 1229 846 1210 Q1021 1177 1111 1053 Q1192 942 1192 776 Q1192 613 1113 504 Q1026 385 847 350 Q729 327 592 327 L360 327 L360 0 L184 0 Z M360 472 L601 472 Q802 472 896 537 Q1012 618 1012 779 Q1012 934 904 1013 Q811 1081 606 1081 L360 1081 L360 472 Z " />
<glyph glyph-name="eth" unicode="&#xf0;" horiz-adv-x="1238" d="M797 1051 Q708 1180 594 1299 L381 1145 L316 1227 L517 1374 Q450 1437 362 1509 L457 1604 Q568 1515 634 1457 L821 1593 L888 1511 L714 1383 Q841 1261 942 1114 Q1137 831 1137 542 Q1137 285 1000 131 Q856 -32 619 -32 Q382 -32 237 131 Q100 286 100 533 Q100 781 237 937 Q308 1018 410 1061 Q500 1099 596 1099 Q699 1099 797 1051 Z M618 955 Q446 955 351 822 Q273 713 273 535 Q273 358 351 248 Q446 115 618 115 Q791 115 886 248 Q964 358 964 529 Q964 713 886 822 Q791 955 618 955 Z " />
<glyph glyph-name="yacute" unicode="&#xfd;" horiz-adv-x="1016" d="M425 41 L24 1080 L203 1080 L508 246 L812 1080 L992 1080 L541 -86 Q480 -241 450 -290 Q379 -406 265 -428 Q215 -438 125 -439 L125 -291 Q229 -290 268 -264 Q322 -228 365 -115 L425 41 Z M417 1225 L614 1553 L806 1553 L539 1225 L417 1225 Z " />
<glyph glyph-name="thorn" unicode="&#xfe;" horiz-adv-x="1290" d="M175 -450 L175 1516 L345 1516 L345 930 Q470 1113 703 1113 Q930 1113 1062 948 Q1189 790 1189 540 Q1189 290 1062 132 Q930 -32 703 -32 Q474 -32 345 151 L345 -450 L175 -450 Z M685 966 Q525 966 430 832 Q345 712 345 546 Q345 369 430 249 Q525 115 686 115 Q836 115 926 233 Q1016 350 1016 541 Q1016 734 926 848 Q834 966 685 966 Z " />
<glyph glyph-name="Amacron" unicode="&#x100;" horiz-adv-x="1343" d="M985 414 L359 414 L203 0 L21 0 L601 1475 L743 1475 L1323 0 L1141 0 L985 414 Z M932 558 L672 1249 L411 558 L932 558 Z M407 1685 L407 1822 L935 1822 L935 1685 L407 1685 Z " />
<glyph glyph-name="amacron" unicode="&#x101;" horiz-adv-x="1262" d="M926 0 L926 160 Q795 -32 571 -32 Q351 -32 223 132 Q100 290 100 540 Q100 790 223 948 Q352 1112 570 1112 Q791 1112 916 929 L916 1080 L1087 1080 L1087 0 L926 0 Z M589 965 Q446 965 359 847 Q273 730 273 540 Q273 350 359 233 Q445 115 589 115 Q744 115 835 249 Q916 370 916 535 Q916 714 835 831 Q741 965 589 965 Z M358 1315 L358 1452 L886 1452 L886 1315 L358 1315 Z " />
<glyph glyph-name="Abreve" unicode="&#x102;" horiz-adv-x="1343" d="M985 414 L359 414 L203 0 L21 0 L601 1475 L743 1475 L1323 0 L1141 0 L985 414 Z M932 558 L672 1249 L411 558 L932 558 Z M385 1900 L485 1900 Q492 1825 526 1791 Q572 1745 671 1745 Q778 1745 822 1799 Q848 1831 854 1900 L956 1900 Q943 1762 886 1697 Q818 1617 671 1617 Q508 1617 440 1714 Q395 1780 385 1900 Z " />
<glyph glyph-name="abreve" unicode="&#x103;" horiz-adv-x="1262" d="M926 0 L926 160 Q795 -32 571 -32 Q351 -32 223 132 Q100 290 100 540 Q100 790 223 948 Q352 1112 570 1112 Q791 1112 916 929 L916 1080 L1087 1080 L1087 0 L926 0 Z M589 965 Q446 965 359 847 Q273 730 273 540 Q273 350 359 233 Q445 115 589 115 Q744 115 835 249 Q916 370 916 535 Q916 714 835 831 Q741 965 589 965 Z M329 1530 L429 1530 Q436 1454 470 1421 Q516 1375 615 1375 Q722 1375 766 1429 Q792 1461 798 1530 L900 1530 Q887 1393 830 1327 Q763 1247 616 1247 Q451 1247 384 1344 Q339 1410 329 1530 Z " />
<glyph glyph-name="Aogonek" unicode="&#x104;" horiz-adv-x="1343" d="M985 414 L359 414 L203 0 L21 0 L601 1475 L743 1475 L1323 0 Q1266 -43 1225 -83 Q1147 -160 1147 -236 Q1147 -275 1166 -297 Q1186 -318 1239 -318 L1342 -318 L1342 -438 L1240 -438 Q1004 -438 1004 -265 Q1004 -172 1098 -78 Q1127 -49 1194 0 L1141 0 L985 414 Z M932 558 L672 1249 L411 558 L932 558 Z " />
<glyph glyph-name="aogonek" unicode="&#x105;" horiz-adv-x="1262" d="M926 0 L926 160 Q795 -32 571 -32 Q351 -32 223 132 Q100 290 100 540 Q100 790 223 948 Q352 1112 570 1112 Q791 1112 916 929 L916 1080 L1087 1080 L1087 0 Q1031 -43 990 -83 Q911 -160 911 -236 Q911 -318 1003 -318 L1106 -318 L1106 -438 L1005 -438 Q768 -438 768 -265 Q768 -172 860 -81 Q893 -48 958 0 L926 0 Z M589 965 Q446 965 359 847 Q273 730 273 540 Q273 350 359 233 Q445 115 589 115 Q744 115 835 249 Q916 370 916 535 Q916 714 835 831 Q741 965 589 965 Z " />
<glyph glyph-name="Cacute" unicode="&#x106;" horiz-adv-x="1402" d="M1188 342 L1302 227 Q1214 111 1111 53 Q964 -29 759 -29 Q423 -29 259 193 Q110 393 110 727 Q110 1092 284 1303 Q448 1503 753 1503 Q1057 1503 1196 1315 Q1274 1210 1278 1046 L1107 1046 Q1101 1164 1037 1239 Q942 1350 754 1350 Q517 1350 399 1170 Q290 1002 290 728 Q290 447 416 281 Q533 126 765 126 Q932 126 1056 210 Q1107 245 1188 342 Z M596 1595 L793 1923 L985 1923 L718 1595 L596 1595 Z " />
<glyph glyph-name="cacute" unicode="&#x107;" horiz-adv-x="1096" d="M928 260 L1015 136 Q844 -32 594 -32 Q365 -32 237 107 Q100 255 100 525 Q100 787 226 952 Q349 1113 590 1113 Q840 1113 942 947 Q996 859 998 737 L840 737 Q820 965 592 965 Q431 965 349 839 Q273 722 273 533 Q273 325 374 213 Q461 116 607 116 Q781 116 928 260 Z M448 1225 L645 1553 L837 1553 L570 1225 L448 1225 Z " />
<glyph glyph-name="Ccircumflex" unicode="&#x108;" horiz-adv-x="1402" d="M1188 342 L1302 227 Q1214 111 1111 53 Q964 -29 759 -29 Q423 -29 259 193 Q110 393 110 727 Q110 1092 284 1303 Q448 1503 753 1503 Q1057 1503 1196 1315 Q1274 1210 1278 1046 L1107 1046 Q1101 1164 1037 1239 Q942 1350 754 1350 Q517 1350 399 1170 Q290 1002 290 728 Q290 447 416 281 Q533 126 765 126 Q932 126 1056 210 Q1107 245 1188 342 Z M750 1806 L575 1595 L406 1595 L698 1923 L802 1923 L1094 1595 L925 1595 L750 1806 Z " />
<glyph glyph-name="ccircumflex" unicode="&#x109;" horiz-adv-x="1096" d="M928 260 L1015 136 Q844 -32 594 -32 Q365 -32 237 107 Q100 255 100 525 Q100 787 226 952 Q349 1113 590 1113 Q840 1113 942 947 Q996 859 998 737 L840 737 Q820 965 592 965 Q431 965 349 839 Q273 722 273 533 Q273 325 374 213 Q461 116 607 116 Q781 116 928 260 Z M599 1436 L424 1225 L255 1225 L547 1553 L651 1553 L943 1225 L774 1225 L599 1436 Z " />
<glyph glyph-name="Cdotaccent" unicode="&#x10a;" horiz-adv-x="1402" d="M1188 342 L1302 227 Q1214 111 1111 53 Q964 -29 759 -29 Q423 -29 259 193 Q110 393 110 727 Q110 1092 284 1303 Q448 1503 753 1503 Q1057 1503 1196 1315 Q1274 1210 1278 1046 L1107 1046 Q1101 1164 1037 1239 Q942 1350 754 1350 Q517 1350 399 1170 Q290 1002 290 728 Q290 447 416 281 Q533 126 765 126 Q932 126 1056 210 Q1107 245 1188 342 Z M750 1856 Q800 1856 834 1819 Q863 1787 863 1744 Q863 1694 825 1661 Q792 1632 748 1632 Q697 1632 663 1669 Q633 1701 633 1745 Q633 1794 671 1828 Q703 1856 750 1856 Z " />
<glyph glyph-name="cdotaccent" unicode="&#x10b;" horiz-adv-x="1096" d="M928 260 L1015 136 Q844 -32 594 -32 Q365 -32 237 107 Q100 255 100 525 Q100 787 226 952 Q349 1113 590 1113 Q840 1113 942 947 Q996 859 998 737 L840 737 Q820 965 592 965 Q431 965 349 839 Q273 722 273 533 Q273 325 374 213 Q461 116 607 116 Q781 116 928 260 Z M579 1491 Q628 1491 663 1454 Q692 1423 692 1379 Q692 1329 654 1296 Q621 1267 577 1267 Q526 1267 492 1304 Q462 1336 462 1380 Q462 1429 500 1463 Q532 1491 579 1491 Z " />
<glyph glyph-name="Ccaron" unicode="&#x10c;" horiz-adv-x="1402" d="M1188 342 L1302 227 Q1214 111 1111 53 Q964 -29 759 -29 Q423 -29 259 193 Q110 393 110 727 Q110 1092 284 1303 Q448 1503 753 1503 Q1057 1503 1196 1315 Q1274 1210 1278 1046 L1107 1046 Q1101 1164 1037 1239 Q942 1350 754 1350 Q517 1350 399 1170 Q290 1002 290 728 Q290 447 416 281 Q533 126 765 126 Q932 126 1056 210 Q1107 245 1188 342 Z M741 1711 L916 1923 L1085 1923 L793 1595 L689 1595 L397 1923 L566 1923 L741 1711 Z " />
<glyph glyph-name="ccaron" unicode="&#x10d;" horiz-adv-x="1096" d="M928 260 L1015 136 Q844 -32 594 -32 Q365 -32 237 107 Q100 255 100 525 Q100 787 226 952 Q349 1113 590 1113 Q840 1113 942 947 Q996 859 998 737 L840 737 Q820 965 592 965 Q431 965 349 839 Q273 722 273 533 Q273 325 374 213 Q461 116 607 116 Q781 116 928 260 Z M581 1341 L756 1553 L925 1553 L633 1225 L529 1225 L237 1553 L406 1553 L581 1341 Z " />
<glyph glyph-name="Dcaron" unicode="&#x10e;" horiz-adv-x="1467" d="M184 0 L184 1475 L574 1475 Q921 1475 1122 1307 Q1356 1112 1356 738 Q1356 363 1122 168 Q922 0 571 0 L184 0 Z M360 148 L562 148 Q835 148 993 279 Q1176 430 1176 738 Q1176 1044 994 1196 Q836 1327 560 1327 L360 1327 L360 148 Z M619 1711 L794 1923 L963 1923 L671 1595 L567 1595 L275 1923 L444 1923 L619 1711 Z " />
<glyph glyph-name="dcaron" unicode="&#x10f;" horiz-adv-x="1490" d="M936 0 L936 160 Q807 -32 577 -32 Q354 -32 225 132 Q100 290 100 540 Q100 790 225 948 Q354 1113 576 1113 Q800 1113 926 929 L926 1516 L1096 1516 L1096 0 L936 0 Z M594 966 Q449 966 360 848 Q273 731 273 541 Q273 350 360 233 Q448 115 594 115 Q751 115 843 249 Q926 369 926 535 Q926 715 843 832 Q748 966 594 966 Z M1230 1103 L1342 1545 L1531 1545 L1359 1103 L1230 1103 Z " />
<glyph glyph-name="Dcroat" unicode="&#x110;" horiz-adv-x="1472" d="M190 846 L190 1475 L580 1475 Q927 1475 1128 1307 Q1362 1112 1362 737 Q1362 363 1128 168 Q927 0 577 0 L190 0 L190 712 L19 712 L19 846 L190 846 Z M366 846 L814 846 L814 712 L366 712 L366 148 L568 148 Q842 148 999 279 Q1182 430 1182 738 Q1182 1044 1000 1196 Q842 1327 566 1327 L366 1327 L366 846 Z " />
<glyph glyph-name="dcroat" unicode="&#x111;" horiz-adv-x="1284" d="M942 0 L942 160 Q811 -32 580 -32 Q356 -32 225 132 Q100 290 100 540 Q100 791 225 949 Q356 1113 579 1113 Q805 1113 932 929 L932 1233 L597 1233 L597 1344 L932 1344 L932 1516 L1102 1516 L1102 1344 L1264 1344 L1264 1233 L1102 1233 L1102 0 L942 0 Z M597 966 Q450 966 361 848 Q273 731 273 541 Q273 350 361 233 Q450 115 597 115 Q755 115 849 249 Q932 369 932 535 Q932 715 849 832 Q752 966 597 966 Z " />
<glyph glyph-name="Emacron" unicode="&#x112;" horiz-adv-x="1193" d="M184 0 L184 1475 L1095 1475 L1095 1327 L360 1327 L360 840 L973 840 L973 693 L360 693 L360 148 L1111 148 L1111 0 L184 0 Z M374 1685 L374 1822 L902 1822 L902 1685 L374 1685 Z " />
<glyph glyph-name="emacron" unicode="&#x113;" horiz-adv-x="1183" d="M1086 496 L274 496 Q286 400 295 363.5 Q304 327 325 288 Q418 116 611 116 Q742 116 860 178 Q907 203 976 254 L1058 124 Q846 -32 613 -32 Q365 -32 227 133 Q100 284 100 530 Q100 788 234 949 Q369 1112 598 1112 Q782 1112 907 997 Q1084 836 1086 496 Z M914 629 Q894 758 851 825 Q760 970 596 970 Q334 970 277 629 L914 629 Z M327 1315 L327 1452 L855 1452 L855 1315 L327 1315 Z " />
<glyph glyph-name="Ebreve" unicode="&#x114;" horiz-adv-x="1193" d="M184 0 L184 1475 L1095 1475 L1095 1327 L360 1327 L360 840 L973 840 L973 693 L360 693 L360 148 L1111 148 L1111 0 L184 0 Z M352 1900 L452 1900 Q459 1825 493 1791 Q539 1745 638 1745 Q745 1745 789 1799 Q815 1831 821 1900 L923 1900 Q910 1762 853 1697 Q785 1617 638 1617 Q475 1617 407 1714 Q362 1780 352 1900 Z " />
<glyph glyph-name="ebreve" unicode="&#x115;" horiz-adv-x="1183" d="M1086 496 L274 496 Q286 400 295 363.5 Q304 327 325 288 Q418 116 611 116 Q742 116 860 178 Q907 203 976 254 L1058 124 Q846 -32 613 -32 Q365 -32 227 133 Q100 284 100 530 Q100 788 234 949 Q369 1112 598 1112 Q782 1112 907 997 Q1084 836 1086 496 Z M914 629 Q894 758 851 825 Q760 970 596 970 Q334 970 277 629 L914 629 Z M309 1530 L409 1530 Q416 1454 450 1421 Q496 1375 595 1375 Q702 1375 746 1429 Q772 1461 778 1530 L880 1530 Q867 1393 810 1327 Q743 1247 596 1247 Q431 1247 364 1344 Q319 1410 309 1530 Z " />
<glyph glyph-name="Edotaccent" unicode="&#x116;" horiz-adv-x="1193" d="M184 0 L184 1475 L1095 1475 L1095 1327 L360 1327 L360 840 L973 840 L973 693 L360 693 L360 148 L1111 148 L1111 0 L184 0 Z M640 1856 Q690 1856 724 1819 Q753 1787 753 1744 Q753 1694 715 1661 Q682 1632 638 1632 Q587 1632 553 1669 Q523 1701 523 1745 Q523 1794 561 1828 Q593 1856 640 1856 Z " />
<glyph glyph-name="edotaccent" unicode="&#x117;" horiz-adv-x="1183" d="M1086 496 L274 496 Q286 400 295 363.5 Q304 327 325 288 Q418 116 611 116 Q742 116 860 178 Q907 203 976 254 L1058 124 Q846 -32 613 -32 Q365 -32 227 133 Q100 284 100 530 Q100 788 234 949 Q369 1112 598 1112 Q782 1112 907 997 Q1084 836 1086 496 Z M914 629 Q894 758 851 825 Q760 970 596 970 Q334 970 277 629 L914 629 Z M595 1491 Q644 1491 679 1454 Q708 1423 708 1379 Q708 1329 670 1296 Q637 1267 593 1267 Q542 1267 508 1304 Q478 1336 478 1380 Q478 1429 516 1463 Q548 1491 595 1491 Z " />
<glyph glyph-name="Eogonek" unicode="&#x118;" horiz-adv-x="1193" d="M1111 0 Q1057 -40 1013 -83 Q934 -159 934 -236 Q934 -275 954 -297 Q973 -318 1027 -318 L1129 -318 L1129 -438 L1028 -438 Q791 -438 791 -264 Q791 -138 981 0 L184 0 L184 1475 L1095 1475 L1095 1327 L360 1327 L360 840 L973 840 L973 693 L360 693 L360 148 L1111 148 L1111 0 Z " />
<glyph glyph-name="eogonek" unicode="&#x119;" horiz-adv-x="1183" d="M1086 496 L274 496 Q286 400 295 363 Q304 326 325 288 Q418 115 611 115 Q742 115 860 177 Q907 202 976 254 L1058 124 Q954 54 884 -12 Q760 -130 760 -235 Q760 -275 780 -297 Q800 -318 852 -318 L955 -318 L955 -438 L854 -438 Q736 -438 680 -400 Q617 -356 617 -261 Q617 -140 744 -18 Q660 -33 599 -33 Q446 -33 325 46 Q100 193 100 530 Q100 788 234 949 Q369 1112 598 1112 Q782 1112 907 997 Q1084 836 1086 496 Z M914 629 Q894 758 851 825 Q760 970 596 970 Q334 970 277 629 L914 629 Z " />
<glyph glyph-name="Ecaron" unicode="&#x11a;" horiz-adv-x="1193" d="M184 0 L184 1475 L1095 1475 L1095 1327 L360 1327 L360 840 L973 840 L973 693 L360 693 L360 148 L1111 148 L1111 0 L184 0 Z M640 1711 L815 1923 L984 1923 L692 1595 L588 1595 L296 1923 L465 1923 L640 1711 Z " />
<glyph glyph-name="ecaron" unicode="&#x11b;" horiz-adv-x="1183" d="M1086 496 L274 496 Q286 400 295 363.5 Q304 327 325 288 Q418 116 611 116 Q742 116 860 178 Q907 203 976 254 L1058 124 Q846 -32 613 -32 Q365 -32 227 133 Q100 284 100 530 Q100 788 234 949 Q369 1112 598 1112 Q782 1112 907 997 Q1084 836 1086 496 Z M914 629 Q894 758 851 825 Q760 970 596 970 Q334 970 277 629 L914 629 Z M595 1341 L770 1553 L939 1553 L647 1225 L543 1225 L251 1553 L420 1553 L595 1341 Z " />
<glyph glyph-name="Gcircumflex" unicode="&#x11c;" horiz-adv-x="1511" d="M866 600 L866 742 L1348 742 L1348 59 Q1095 -29 788 -29 Q561 -29 426 48 Q256 143 174 348 Q110 505 110 725 Q110 1090 292 1303 Q464 1503 779 1503 Q1100 1503 1242 1316 Q1322 1210 1324 1046 L1153 1046 Q1147 1166 1081 1239 Q981 1350 779 1350 Q529 1350 406 1170 Q290 1001 290 727 Q290 443 421 278 Q488 195 580 158 Q669 124 801 124 Q989 124 1178 190 L1178 600 L866 600 Z M770 1806 L595 1595 L426 1595 L718 1923 L822 1923 L1114 1595 L945 1595 L770 1806 Z " />
<glyph glyph-name="gcircumflex" unicode="&#x11d;" horiz-adv-x="1272" d="M926 158 Q802 -23 577 -23 Q355 -23 225 139 Q100 294 100 540 Q100 787 222 944 Q352 1112 578 1112 Q807 1112 937 920 L937 1080 L1097 1080 L1097 159 Q1097 -14 1075 -117 Q1000 -467 601 -467 Q344 -467 148 -329 L230 -200 Q295 -245 345 -269 Q463 -324 602 -324 Q802 -324 875 -185 Q912 -115 921 -10 Q926 44 926 125 L926 158 Z M594 965 Q448 965 360 847 Q273 730 273 541 Q273 354 360 239 Q447 124 595 124 Q751 124 843 255 Q926 373 926 535 Q926 714 843 831 Q748 965 594 965 Z M640 1436 L465 1225 L296 1225 L588 1553 L692 1553 L984 1225 L815 1225 L640 1436 Z " />
<glyph glyph-name="Gbreve" unicode="&#x11e;" horiz-adv-x="1511" d="M866 600 L866 742 L1348 742 L1348 59 Q1095 -29 788 -29 Q561 -29 426 48 Q256 143 174 348 Q110 505 110 725 Q110 1090 292 1303 Q464 1503 779 1503 Q1100 1503 1242 1316 Q1322 1210 1324 1046 L1153 1046 Q1147 1166 1081 1239 Q981 1350 779 1350 Q529 1350 406 1170 Q290 1001 290 727 Q290 443 421 278 Q488 195 580 158 Q669 124 801 124 Q989 124 1178 190 L1178 600 L866 600 Z M478 1900 L578 1900 Q585 1825 619 1791 Q665 1745 764 1745 Q871 1745 915 1799 Q941 1831 947 1900 L1049 1900 Q1036 1762 979 1697 Q911 1617 764 1617 Q601 1617 533 1714 Q488 1780 478 1900 Z " />
<glyph glyph-name="gbreve" unicode="&#x11f;" horiz-adv-x="1272" d="M926 158 Q802 -23 577 -23 Q355 -23 225 139 Q100 294 100 540 Q100 787 222 944 Q352 1112 578 1112 Q807 1112 937 920 L937 1080 L1097 1080 L1097 159 Q1097 -14 1075 -117 Q1000 -467 601 -467 Q344 -467 148 -329 L230 -200 Q295 -245 345 -269 Q463 -324 602 -324 Q802 -324 875 -185 Q912 -115 921 -10 Q926 44 926 125 L926 158 Z M594 965 Q448 965 360 847 Q273 730 273 541 Q273 354 360 239 Q447 124 595 124 Q751 124 843 255 Q926 373 926 535 Q926 714 843 831 Q748 965 594 965 Z M350 1530 L450 1530 Q457 1454 491 1421 Q537 1375 636 1375 Q743 1375 787 1429 Q813 1461 819 1530 L921 1530 Q908 1393 851 1327 Q784 1247 637 1247 Q472 1247 405 1344 Q360 1410 350 1530 Z " />
<glyph glyph-name="Gdotaccent" unicode="&#x120;" horiz-adv-x="1511" d="M866 600 L866 742 L1348 742 L1348 59 Q1095 -29 788 -29 Q561 -29 426 48 Q256 143 174 348 Q110 505 110 725 Q110 1090 292 1303 Q464 1503 779 1503 Q1100 1503 1242 1316 Q1322 1210 1324 1046 L1153 1046 Q1147 1166 1081 1239 Q981 1350 779 1350 Q529 1350 406 1170 Q290 1001 290 727 Q290 443 421 278 Q488 195 580 158 Q669 124 801 124 Q989 124 1178 190 L1178 600 L866 600 Z M766 1856 Q816 1856 850 1819 Q879 1787 879 1744 Q879 1694 841 1661 Q808 1632 764 1632 Q713 1632 679 1669 Q649 1701 649 1745 Q649 1794 687 1828 Q719 1856 766 1856 Z " />
<glyph glyph-name="gdotaccent" unicode="&#x121;" horiz-adv-x="1272" d="M926 158 Q802 -23 577 -23 Q355 -23 225 139 Q100 294 100 540 Q100 787 222 944 Q352 1112 578 1112 Q807 1112 937 920 L937 1080 L1097 1080 L1097 159 Q1097 -14 1075 -117 Q1000 -467 601 -467 Q344 -467 148 -329 L230 -200 Q295 -245 345 -269 Q463 -324 602 -324 Q802 -324 875 -185 Q912 -115 921 -10 Q926 44 926 125 L926 158 Z M594 965 Q448 965 360 847 Q273 730 273 541 Q273 354 360 239 Q447 124 595 124 Q751 124 843 255 Q926 373 926 535 Q926 714 843 831 Q748 965 594 965 Z M631 1491 Q680 1491 715 1454 Q744 1423 744 1379 Q744 1329 706 1296 Q673 1267 629 1267 Q578 1267 544 1304 Q514 1336 514 1380 Q514 1429 552 1463 Q584 1491 631 1491 Z " />
<glyph glyph-name="Gcommaaccent" unicode="&#x122;" horiz-adv-x="1511" d="M866 600 L866 742 L1348 742 L1348 59 Q1095 -29 788 -29 Q561 -29 426 48 Q256 143 174 348 Q110 505 110 725 Q110 1090 292 1303 Q464 1503 779 1503 Q1100 1503 1242 1316 Q1322 1210 1324 1046 L1153 1046 Q1147 1166 1081 1239 Q981 1350 779 1350 Q529 1350 406 1170 Q290 1001 290 727 Q290 443 421 278 Q488 195 580 158 Q669 124 801 124 Q989 124 1178 190 L1178 600 L866 600 Z M575 -480 L706 -152 L890 -152 L694 -480 L575 -480 Z " />
<glyph glyph-name="gcommaaccent" unicode="&#x123;" horiz-adv-x="1272" d="M926 158 Q802 -23 577 -23 Q355 -23 225 139 Q100 294 100 540 Q100 787 222 944 Q352 1112 578 1112 Q807 1112 937 920 L937 1080 L1097 1080 L1097 159 Q1097 -14 1075 -117 Q1000 -467 601 -467 Q344 -467 148 -329 L230 -200 Q295 -245 345 -269 Q463 -324 602 -324 Q802 -324 875 -185 Q912 -115 921 -10 Q926 44 926 125 L926 158 Z M594 965 Q448 965 360 847 Q273 730 273 541 Q273 354 360 239 Q447 124 595 124 Q751 124 843 255 Q926 373 926 535 Q926 714 843 831 Q748 965 594 965 Z M890 1553 L693 1225 L501 1225 L768 1553 L890 1553 Z " />
<glyph glyph-name="Hcircumflex" unicode="&#x124;" horiz-adv-x="1433" d="M184 0 L184 1475 L360 1475 L360 850 L1072 850 L1072 1475 L1248 1475 L1248 0 L1072 0 L1072 703 L360 703 L360 0 L184 0 Z M715 1806 L540 1595 L371 1595 L663 1923 L767 1923 L1059 1595 L890 1595 L715 1806 Z " />
<glyph glyph-name="hcircumflex" unicode="&#x125;" horiz-adv-x="1241" d="M175 0 L175 1516 L345 1516 L345 901 Q430 985 494 1029 Q617 1113 752 1113 Q948 1113 1022 969 Q1059 897 1070 785 Q1075 732 1075 627 L1075 0 L905 0 L905 636 Q905 779 882 846 Q844 956 710 956 Q601 956 483 861 Q425 815 345 722 L345 0 L175 0 Z M320 1806 L145 1595 L-24 1595 L268 1923 L372 1923 L664 1595 L495 1595 L320 1806 Z " />
<glyph glyph-name="Hbar" unicode="&#x126;" horiz-adv-x="1431" d="M184 0 L184 1045 L20 1045 L20 1150 L184 1150 L184 1475 L360 1475 L360 1150 L1072 1150 L1072 1475 L1248 1475 L1248 1150 L1411 1150 L1411 1045 L1248 1045 L1248 0 L1072 0 L1072 703 L360 703 L360 0 L184 0 Z M360 850 L1072 850 L1072 1045 L360 1045 L360 850 Z " />
<glyph glyph-name="hbar" unicode="&#x127;" horiz-adv-x="1247" d="M181 0 L181 1233 L32 1233 L32 1344 L181 1344 L181 1516 L351 1516 L351 1344 L698 1344 L698 1233 L351 1233 L351 901 Q448 995 500 1029 Q624 1113 758 1113 Q954 1113 1028 969 Q1065 897 1076 785 Q1081 732 1081 627 L1081 0 L911 0 L911 636 Q911 779 888 846 Q850 956 716 956 Q607 956 489 861 Q447 828 351 722 L351 0 L181 0 Z " />
<glyph glyph-name="Itilde" unicode="&#x128;" horiz-adv-x="545" d="M184 0 L184 1475 L360 1475 L360 0 L184 0 Z M73 1654 L-33 1654 Q11 1856 158 1856 Q212 1856 291 1811 Q363 1771 384 1771 Q435 1771 470 1855 L576 1855 Q551 1762 517 1717 Q467 1648 377 1648 Q318 1648 212 1710 Q173 1733 151 1733 Q103 1733 73 1654 Z " />
<glyph glyph-name="itilde" unicode="&#x129;" horiz-adv-x="535" d="M182 0 L182 1080 L352 1080 L352 0 L182 0 Z M68 1284 L-38 1284 Q6 1486 153 1486 Q208 1486 286 1442 Q358 1401 379 1401 Q428 1401 465 1485 L571 1485 Q545 1391 512 1347 Q461 1278 373 1278 Q313 1278 207 1340 Q168 1363 146 1363 Q98 1363 68 1284 Z " />
<glyph glyph-name="Imacron" unicode="&#x12a;" horiz-adv-x="545" d="M184 0 L184 1475 L360 1475 L360 0 L184 0 Z M8 1685 L8 1822 L536 1822 L536 1685 L8 1685 Z " />
<glyph glyph-name="imacron" unicode="&#x12b;" horiz-adv-x="535" d="M182 0 L182 1080 L352 1080 L352 0 L182 0 Z M3 1315 L3 1452 L531 1452 L531 1315 L3 1315 Z " />
<glyph glyph-name="Ibreve" unicode="&#x12c;" horiz-adv-x="545" d="M184 0 L184 1475 L360 1475 L360 0 L184 0 Z M-14 1900 L86 1900 Q93 1825 127 1791 Q173 1745 272 1745 Q379 1745 423 1799 Q449 1831 455 1900 L557 1900 Q544 1762 487 1697 Q419 1617 272 1617 Q109 1617 41 1714 Q-4 1780 -14 1900 Z " />
<glyph glyph-name="ibreve" unicode="&#x12d;" horiz-adv-x="535" d="M182 0 L182 1080 L352 1080 L352 0 L182 0 Z M-19 1530 L81 1530 Q88 1454 122 1421 Q168 1375 267 1375 Q374 1375 418 1429 Q444 1461 450 1530 L552 1530 Q539 1393 482 1327 Q415 1247 268 1247 Q103 1247 36 1344 Q-9 1410 -19 1530 Z " />
<glyph glyph-name="Iogonek" unicode="&#x12e;" horiz-adv-x="545" d="M361 0 Q303 -44 263 -82 Q185 -159 185 -236 Q185 -318 277 -318 L380 -318 L380 -438 L279 -438 Q42 -438 42 -264 Q42 -161 151 -65 Q188 -32 232 0 L185 0 L185 1475 L361 1475 L361 0 Z " />
<glyph glyph-name="iogonek" unicode="&#x12f;" horiz-adv-x="537" d="M184 0 L184 1080 L354 1080 L354 0 Q296 -44 256 -83 Q178 -160 178 -236 Q178 -318 270 -318 L373 -318 L373 -438 L272 -438 Q35 -438 35 -265 Q35 -173 125 -83 Q156 -51 225 0 L184 0 Z M270 1491 Q320 1491 354 1454 Q383 1423 383 1379 Q383 1329 345 1296 Q312 1267 268 1267 Q217 1267 183 1304 Q153 1336 153 1380 Q153 1429 191 1463 Q223 1491 270 1491 Z " />
<glyph glyph-name="Idotaccent" unicode="&#x130;" horiz-adv-x="545" d="M184 0 L184 1475 L360 1475 L360 0 L184 0 Z M274 1856 Q324 1856 358 1819 Q387 1787 387 1744 Q387 1694 349 1661 Q316 1632 272 1632 Q221 1632 187 1669 Q157 1701 157 1745 Q157 1794 195 1828 Q227 1856 274 1856 Z " />
<glyph glyph-name="IJ" unicode="&#x132;" horiz-adv-x="1130" d="M184 0 L184 1475 L360 1475 L360 0 L184 0 Z M769 1475 L945 1475 L945 133 Q945 -25 917 -102 Q869 -235 731 -277 Q677 -293 583 -297 L583 -150 Q692 -141 728 -91 Q755 -55 763 4 Q769 41 769 123 L769 1475 Z " />
<glyph glyph-name="ij" unicode="&#x133;" horiz-adv-x="1092" d="M183 0 L183 1080 L353 1080 L353 0 L183 0 Z M270 1491 Q319 1491 354 1454 Q383 1423 383 1379 Q383 1329 345 1296 Q312 1267 268 1267 Q217 1267 183 1304 Q153 1336 153 1380 Q153 1429 191 1463 Q223 1491 270 1491 Z M738 1080 L908 1080 L908 23 Q908 -147 880 -229 Q815 -425 558 -439 L558 -291 Q621 -284 651 -268 Q707 -237 726 -153 Q738 -100 738 21 L738 1080 Z M825 1491 Q875 1491 908 1454 Q938 1422 938 1379 Q938 1329 900 1296 Q867 1267 823 1267 Q773 1267 738 1304 Q708 1336 708 1380 Q708 1429 746 1463 Q778 1491 825 1491 Z " />
<glyph glyph-name="Jcircumflex" unicode="&#x134;" horiz-adv-x="586" d="M225 1475 L401 1475 L401 133 Q401 -25 373 -102 Q325 -235 187 -277 Q133 -293 39 -297 L39 -150 Q148 -141 184 -91 Q211 -55 219 4 Q225 41 225 123 L225 1475 Z M299 1806 L124 1595 L-45 1595 L247 1923 L351 1923 L643 1595 L474 1595 L299 1806 Z " />
<glyph glyph-name="jcircumflex" unicode="&#x135;" horiz-adv-x="554" d="M201 1080 L371 1080 L371 23 Q371 -147 343 -229 Q278 -425 21 -439 L21 -291 Q84 -284 114 -268 Q170 -237 189 -153 Q201 -100 201 21 L201 1080 Z M276 1436 L101 1225 L-68 1225 L224 1553 L328 1553 L620 1225 L451 1225 L276 1436 Z " />
<glyph glyph-name="Kcommaaccent" unicode="&#x136;" horiz-adv-x="1192" d="M184 0 L184 1475 L360 1475 L360 786 L974 1475 L1179 1475 L553 781 L1240 0 L1023 0 L360 765 L360 0 L184 0 Z M445 -480 L576 -152 L760 -152 L564 -480 L445 -480 Z " />
<glyph glyph-name="kcommaaccent" unicode="&#x137;" horiz-adv-x="1073" d="M175 0 L175 1516 L345 1516 L345 643 L802 1080 L1003 1080 L527 623 L1089 0 L884 0 L345 609 L345 -1 L175 0 Z M365 -480 L496 -152 L680 -152 L484 -480 L365 -480 Z " />
<glyph glyph-name="kgreenlandic" unicode="&#x138;" horiz-adv-x="1042" d="M160 0 L160 1080 L330 1080 L330 632 L787 1080 L988 1080 L512 611 L1074 0 L869 0 L330 598 L330 -1 L160 0 Z " />
<glyph glyph-name="Lacute" unicode="&#x139;" horiz-adv-x="1082" d="M184 0 L184 1475 L360 1475 L360 148 L1031 148 L1031 0 L184 0 Z M220 1595 L417 1923 L609 1923 L342 1595 L220 1595 Z " />
<glyph glyph-name="lacute" unicode="&#x13a;" horiz-adv-x="520" d="M164 0 L164 1516 L334 1516 L334 0 L164 0 Z M156 1645 L353 1973 L545 1973 L278 1645 L156 1645 Z " />
<glyph glyph-name="Lcommaaccent" unicode="&#x13b;" horiz-adv-x="1082" d="M184 0 L184 1475 L360 1475 L360 148 L1031 148 L1031 0 L184 0 Z M370 -480 L501 -152 L685 -152 L489 -480 L370 -480 Z " />
<glyph glyph-name="lcommaaccent" unicode="&#x13c;" horiz-adv-x="520" d="M175 0 L175 1516 L345 1516 L345 0 L175 0 Z M44 -480 L175 -152 L359 -152 L163 -480 L44 -480 Z " />
<glyph glyph-name="Lcaron" unicode="&#x13d;" horiz-adv-x="1082" d="M184 0 L184 1475 L360 1475 L360 148 L1031 148 L1031 0 L184 0 Z M561 1033 L670 1475 L862 1475 L690 1033 L561 1033 Z " />
<glyph glyph-name="lcaron" unicode="&#x13e;" horiz-adv-x="739" d="M175 0 L175 1516 L345 1516 L345 0 L175 0 Z M479 1103 L591 1545 L780 1545 L608 1103 L479 1103 Z " />
<glyph glyph-name="Ldot" unicode="&#x13f;" horiz-adv-x="1083" d="M169 0 L169 1475 L345 1475 L345 148 L1016 148 L1016 0 L169 0 Z M800 738 Q854 738 892 697 Q925 662 925 614 Q925 559 883 522 Q846 490 798 490 Q741 490 703 531 Q670 566 670 615 Q670 669 712 706 Q748 738 800 738 Z " />
<glyph glyph-name="ldot" unicode="&#x140;" horiz-adv-x="687" d="M160 0 L160 1516 L330 1516 L330 0 L160 0 Z M596 761 Q650 761 688 720 Q721 685 721 637 Q721 582 679 545 Q642 513 594 513 Q537 513 499 554 Q466 589 466 638 Q466 692 508 729 Q544 761 596 761 Z " />
<glyph glyph-name="Lslash" unicode="&#x141;" horiz-adv-x="1107" d="M210 0 L210 562 L20 438 L20 598 L210 722 L210 1475 L386 1475 L386 837 L692 1037 L692 876 L386 677 L386 148 L1057 148 L1057 0 L210 0 Z " />
<glyph glyph-name="lslash" unicode="&#x142;" horiz-adv-x="587" d="M208 0 L208 687 L-11 532 L-11 675 L208 830 L208 1516 L378 1516 L378 948 L597 1103 L597 960 L378 805 L378 0 L208 0 Z " />
<glyph glyph-name="Nacute" unicode="&#x143;" horiz-adv-x="1433" d="M184 0 L184 1475 L354 1475 L1075 374 L1075 1475 L1248 1475 L1248 -19 L1130 -19 L357 1175 L357 0 L184 0 Z M634 1595 L831 1923 L1023 1923 L756 1595 L634 1595 Z " />
<glyph glyph-name="nacute" unicode="&#x144;" horiz-adv-x="1242" d="M175 0 L175 1080 L345 1080 L345 898 Q433 986 498 1030 Q620 1113 754 1113 Q948 1113 1022 969 Q1059 897 1070 785 Q1075 729 1075 627 L1075 0 L905 0 L905 636 Q905 780 882 846 Q844 956 711 956 Q601 956 485 862 Q423 813 345 721 L345 0 L175 0 Z M512 1225 L709 1553 L901 1553 L634 1225 L512 1225 Z " />
<glyph glyph-name="Ncommaaccent" unicode="&#x145;" horiz-adv-x="1433" d="M184 0 L184 1475 L354 1475 L1075 374 L1075 1475 L1248 1475 L1248 -19 L1130 -19 L357 1175 L357 0 L184 0 Z M522 -480 L653 -152 L837 -152 L641 -480 L522 -480 Z " />
<glyph glyph-name="ncommaaccent" unicode="&#x146;" horiz-adv-x="1242" d="M175 0 L175 1080 L345 1080 L345 898 Q433 986 498 1030 Q620 1113 754 1113 Q948 1113 1022 969 Q1059 897 1070 785 Q1075 729 1075 627 L1075 0 L905 0 L905 636 Q905 780 882 846 Q844 956 711 956 Q601 956 485 862 Q423 813 345 721 L345 0 L175 0 Z M429 -480 L560 -152 L744 -152 L548 -480 L429 -480 Z " />
<glyph glyph-name="Ncaron" unicode="&#x147;" horiz-adv-x="1433" d="M184 0 L184 1475 L354 1475 L1075 374 L1075 1475 L1248 1475 L1248 -19 L1130 -19 L357 1175 L357 0 L184 0 Z M745 1711 L920 1923 L1089 1923 L797 1595 L693 1595 L401 1923 L570 1923 L745 1711 Z " />
<glyph glyph-name="ncaron" unicode="&#x148;" horiz-adv-x="1242" d="M175 0 L175 1080 L345 1080 L345 898 Q433 986 498 1030 Q620 1113 754 1113 Q948 1113 1022 969 Q1059 897 1070 785 Q1075 729 1075 627 L1075 0 L905 0 L905 636 Q905 780 882 846 Q844 956 711 956 Q601 956 485 862 Q423 813 345 721 L345 0 L175 0 Z M617 1341 L792 1553 L961 1553 L669 1225 L565 1225 L273 1553 L442 1553 L617 1341 Z " />
<glyph glyph-name="napostrophe" unicode="&#x149;" horiz-adv-x="1266" d="M214 0 L214 1080 L384 1080 L384 898 Q481 992 537 1029 Q659 1112 793 1112 Q987 1112 1061 968 Q1098 897 1109 785 Q1114 729 1114 627 L1114 0 L944 0 L944 636 Q944 779 921 845 Q883 955 750 955 Q641 955 524 862 Q466 815 384 721 L384 0 L214 0 Z M-45 1098 L68 1579 L253 1579 L82 1098 L-45 1098 Z " />
<glyph glyph-name="Eng" unicode="&#x14a;" horiz-adv-x="1443" d="M169 0 L169 1475 L340 1475 L1099 371 L1099 1475 L1273 1475 L1273 -6 Q1273 -159 1246 -233 Q1199 -358 1065 -401 Q1010 -418 923 -422 L923 -274 Q984 -269 1015 -255 Q1072 -229 1090 -158 Q1103 -109 1103 -9 L1103 63 L343 1180 L343 0 L169 0 Z " />
<glyph glyph-name="eng" unicode="&#x14b;" horiz-adv-x="1211" d="M160 0 L160 1080 L330 1080 L330 898 Q427 992 483 1030 Q606 1113 738 1113 Q933 1113 1007 969 Q1044 897 1055 785 Q1060 729 1060 627 L1060 11 Q1060 -158 1032 -240 Q986 -378 852 -426 Q797 -446 710 -450 L710 -303 Q773 -296 803 -280 Q859 -248 878 -164 Q890 -111 890 10 L890 636 Q890 779 867 846 Q829 956 696 956 Q587 956 470 862 Q411 815 330 721 L330 0 L160 0 Z " />
<glyph glyph-name="Omacron" unicode="&#x14c;" horiz-adv-x="1543" d="M772 1504 Q1130 1504 1295 1262 Q1432 1061 1432 738 Q1432 415 1295 213 Q1131 -29 773 -29 Q411 -29 247 213 Q110 415 110 747 Q110 1064 247 1262 Q415 1504 772 1504 Z M771 1349 Q518 1349 402 1183 Q290 1024 290 746 Q290 546 335 422 Q399 244 535 175 Q629 126 778 126 Q1025 126 1140 292 Q1252 453 1252 738 Q1252 1349 771 1349 Z M507 1685 L507 1822 L1035 1822 L1035 1685 L507 1685 Z " />
<glyph glyph-name="omacron" unicode="&#x14d;" horiz-adv-x="1240" d="M620 1112 Q856 1112 1001 948 Q1139 791 1139 540 Q1139 290 1001 132 Q857 -32 621 -32 Q382 -32 238 132 Q100 290 100 547 Q100 790 238 948 Q381 1112 620 1112 Z M620 965 Q447 965 352 831 Q273 720 273 546 Q273 360 352 249 Q446 115 620 115 Q793 115 887 249 Q966 360 966 540 Q966 721 887 831 Q792 965 620 965 Z M355 1315 L355 1452 L883 1452 L883 1315 L355 1315 Z " />
<glyph glyph-name="Obreve" unicode="&#x14e;" horiz-adv-x="1543" d="M772 1504 Q1130 1504 1295 1262 Q1432 1061 1432 738 Q1432 415 1295 213 Q1131 -29 773 -29 Q411 -29 247 213 Q110 415 110 747 Q110 1064 247 1262 Q415 1504 772 1504 Z M771 1349 Q518 1349 402 1183 Q290 1024 290 746 Q290 546 335 422 Q399 244 535 175 Q629 126 778 126 Q1025 126 1140 292 Q1252 453 1252 738 Q1252 1349 771 1349 Z M485 1900 L585 1900 Q592 1825 626 1791 Q672 1745 771 1745 Q878 1745 922 1799 Q948 1831 954 1900 L1056 1900 Q1043 1762 986 1697 Q918 1617 771 1617 Q608 1617 540 1714 Q495 1780 485 1900 Z " />
<glyph glyph-name="obreve" unicode="&#x14f;" horiz-adv-x="1240" d="M620 1112 Q856 1112 1001 948 Q1139 791 1139 540 Q1139 290 1001 132 Q857 -32 621 -32 Q382 -32 238 132 Q100 290 100 547 Q100 790 238 948 Q381 1112 620 1112 Z M620 965 Q447 965 352 831 Q273 720 273 546 Q273 360 352 249 Q446 115 620 115 Q793 115 887 249 Q966 360 966 540 Q966 721 887 831 Q792 965 620 965 Z M333 1530 L433 1530 Q440 1454 474 1421 Q520 1375 619 1375 Q726 1375 770 1429 Q796 1461 802 1530 L904 1530 Q891 1393 834 1327 Q767 1247 620 1247 Q455 1247 388 1344 Q343 1410 333 1530 Z " />
<glyph glyph-name="Ohungarumlaut" unicode="&#x150;" horiz-adv-x="1543" d="M772 1504 Q1130 1504 1295 1262 Q1432 1061 1432 738 Q1432 415 1295 213 Q1131 -29 773 -29 Q411 -29 247 213 Q110 415 110 747 Q110 1064 247 1262 Q415 1504 772 1504 Z M771 1349 Q518 1349 402 1183 Q290 1024 290 746 Q290 546 335 422 Q399 244 535 175 Q629 126 778 126 Q1025 126 1140 292 Q1252 453 1252 738 Q1252 1349 771 1349 Z M570 1595 L706 1923 L879 1923 L672 1595 L570 1595 Z M840 1595 L987 1923 L1164 1923 L943 1595 L840 1595 Z " />
<glyph glyph-name="ohungarumlaut" unicode="&#x151;" horiz-adv-x="1240" d="M620 1112 Q856 1112 1001 948 Q1139 791 1139 540 Q1139 290 1001 132 Q857 -32 621 -32 Q382 -32 238 132 Q100 290 100 547 Q100 790 238 948 Q381 1112 620 1112 Z M620 965 Q447 965 352 831 Q273 720 273 546 Q273 360 352 249 Q446 115 620 115 Q793 115 887 249 Q966 360 966 540 Q966 721 887 831 Q792 965 620 965 Z M419 1225 L555 1553 L728 1553 L521 1225 L419 1225 Z M689 1225 L836 1553 L1013 1553 L792 1225 L689 1225 Z " />
<glyph glyph-name="Racute" unicode="&#x154;" horiz-adv-x="1319" d="M173 0 L173 1475 L629 1475 Q769 1475 860 1460 Q1022 1432 1107 1317 Q1186 1210 1186 1050 Q1186 854 1063 746 Q1019 707 918 663 Q974 632 1007 582 Q1041 531 1073 434 L1218 0 L1024 0 L912 344 Q883 434 869 461 Q819 551 761 581 Q705 609 575 609 L349 609 L349 0 L173 0 Z M349 754 L616 754 Q810 754 893 809 Q1006 883 1006 1041 Q1006 1196 900 1271 Q820 1327 628 1327 L349 1327 L349 754 Z M505 1595 L702 1923 L894 1923 L627 1595 L505 1595 Z " />
<glyph glyph-name="racute" unicode="&#x155;" horiz-adv-x="798" d="M175 0 L175 1080 L340 1080 L340 894 Q426 1004 489 1041 Q578 1094 699 1094 L742 1094 L742 930 L704 930 Q618 930 566 912 Q481 882 408 783 Q389 757 345 687 L345 0 L175 0 Z M354 1225 L551 1553 L743 1553 L476 1225 L354 1225 Z " />
<glyph glyph-name="Rcommaaccent" unicode="&#x156;" horiz-adv-x="1319" d="M173 0 L173 1475 L629 1475 Q769 1475 860 1460 Q1022 1432 1107 1317 Q1186 1210 1186 1050 Q1186 854 1063 746 Q1019 707 918 663 Q974 632 1007 582 Q1041 531 1073 434 L1218 0 L1024 0 L912 344 Q883 434 869 461 Q819 551 761 581 Q705 609 575 609 L349 609 L349 0 L173 0 Z M349 754 L616 754 Q810 754 893 809 Q1006 883 1006 1041 Q1006 1196 900 1271 Q820 1327 628 1327 L349 1327 L349 754 Z M452 -480 L583 -152 L767 -152 L571 -480 L452 -480 Z " />
<glyph glyph-name="rcommaaccent" unicode="&#x157;" horiz-adv-x="798" d="M175 0 L175 1080 L340 1080 L340 894 Q426 1004 489 1041 Q578 1094 699 1094 L742 1094 L742 930 L704 930 Q618 930 566 912 Q481 882 408 783 Q389 757 345 687 L345 0 L175 0 Z M44 -480 L175 -152 L359 -152 L163 -480 L44 -480 Z " />
<glyph glyph-name="Rcaron" unicode="&#x158;" horiz-adv-x="1319" d="M173 0 L173 1475 L629 1475 Q769 1475 860 1460 Q1022 1432 1107 1317 Q1186 1210 1186 1050 Q1186 854 1063 746 Q1019 707 918 663 Q974 632 1007 582 Q1041 531 1073 434 L1218 0 L1024 0 L912 344 Q883 434 869 461 Q819 551 761 581 Q705 609 575 609 L349 609 L349 0 L173 0 Z M349 754 L616 754 Q810 754 893 809 Q1006 883 1006 1041 Q1006 1196 900 1271 Q820 1327 628 1327 L349 1327 L349 754 Z M620 1711 L795 1923 L964 1923 L672 1595 L568 1595 L276 1923 L445 1923 L620 1711 Z " />
<glyph glyph-name="rcaron" unicode="&#x159;" horiz-adv-x="799" d="M175 0 L175 1080 L340 1080 L340 894 Q426 1004 489 1041 Q578 1094 699 1094 L742 1094 L742 930 L704 930 Q618 930 566 912 Q481 882 408 783 Q389 757 345 687 L345 0 L175 0 Z M441 1341 L616 1553 L785 1553 L493 1225 L389 1225 L97 1553 L266 1553 L441 1341 Z " />
<glyph glyph-name="Sacute" unicode="&#x15a;" horiz-adv-x="1258" d="M97 429 L268 429 Q274 291 340 221 Q433 123 632 123 Q813 123 905 202 Q992 277 992 398 Q992 520 899 586 Q837 629 755 654 Q688 674 593 698 Q425 741 357 770 Q228 827 179 916 Q137 992 137 1096 Q137 1266 240 1375 Q362 1504 600 1504 Q1075 1504 1078 1052 L907 1052 Q902 1188 849 1255 Q771 1352 604 1352 Q461 1352 384 1282 Q311 1215 311 1114 Q311 997 406 941 Q462 908 532 888 Q593 871 672 852 Q863 805 941 767 Q1168 655 1168 412 Q1168 215 1042 99 Q903 -29 635 -29 Q309 -29 178 144 Q100 246 97 429 Z M497 1595 L694 1923 L886 1923 L619 1595 L497 1595 Z " />
<glyph glyph-name="sacute" unicode="&#x15b;" horiz-adv-x="1042" d="M73 332 L231 332 Q242 234 282 189 Q357 108 525 108 Q793 108 793 295 Q793 387 727 427 Q688 451 625 463 Q593 470 498 487 Q322 519 243 567 Q126 638 126 792 Q126 947 236 1035 Q333 1112 497 1112 Q631 1112 729 1062 Q883 983 886 782 L728 782 Q718 867 687 903 Q627 972 493 972 Q400 972 348 931 Q293 888 293 807 Q293 724 358 689 Q407 663 552 636 Q685 611 741 592 Q866 548 915 467 Q956 399 956 305 Q956 145 845 57 Q731 -32 527 -32 Q80 -32 73 332 Z M384 1225 L581 1553 L773 1553 L506 1225 L384 1225 Z " />
<glyph glyph-name="Scircumflex" unicode="&#x15c;" horiz-adv-x="1258" d="M97 429 L268 429 Q274 291 340 221 Q433 123 632 123 Q813 123 905 202 Q992 277 992 398 Q992 520 899 586 Q837 629 755 654 Q688 674 593 698 Q425 741 357 770 Q228 827 179 916 Q137 992 137 1096 Q137 1266 240 1375 Q362 1504 600 1504 Q1075 1504 1078 1052 L907 1052 Q902 1188 849 1255 Q771 1352 604 1352 Q461 1352 384 1282 Q311 1215 311 1114 Q311 997 406 941 Q462 908 532 888 Q593 871 672 852 Q863 805 941 767 Q1168 655 1168 412 Q1168 215 1042 99 Q903 -29 635 -29 Q309 -29 178 144 Q100 246 97 429 Z M628 1806 L453 1595 L284 1595 L576 1923 L680 1923 L972 1595 L803 1595 L628 1806 Z " />
<glyph glyph-name="scircumflex" unicode="&#x15d;" horiz-adv-x="1042" d="M73 332 L231 332 Q242 234 282 189 Q357 108 525 108 Q793 108 793 295 Q793 387 727 427 Q688 451 625 463 Q593 470 498 487 Q322 519 243 567 Q126 638 126 792 Q126 947 236 1035 Q333 1112 497 1112 Q631 1112 729 1062 Q883 983 886 782 L728 782 Q718 867 687 903 Q627 972 493 972 Q400 972 348 931 Q293 888 293 807 Q293 724 358 689 Q407 663 552 636 Q685 611 741 592 Q866 548 915 467 Q956 399 956 305 Q956 145 845 57 Q731 -32 527 -32 Q80 -32 73 332 Z M497 1436 L322 1225 L153 1225 L445 1553 L549 1553 L841 1225 L672 1225 L497 1436 Z " />
<glyph glyph-name="Scedilla" unicode="&#x15e;" horiz-adv-x="1258" d="M691 -27 L654 -94 Q738 -101 775 -118 Q872 -162 872 -276 Q872 -388 786 -439 Q722 -477 620 -477 Q488 -477 369 -437 L407 -318 Q520 -357 614 -357 Q729 -357 729 -277 Q729 -200 603 -200 Q578 -200 531 -204 L514 -112 L563 -25 Q382 -13 266 61 Q137 145 106 311 Q98 356 97 429 L268 429 Q274 291 340 221 Q433 123 632 123 Q813 123 905 202 Q992 277 992 398 Q992 520 899 586 Q837 629 755 654 Q688 674 593 698 Q425 741 357 771 Q228 827 179 916 Q137 992 137 1096 Q137 1266 240 1375 Q362 1504 600 1504 Q1075 1504 1078 1052 L907 1052 Q902 1188 849 1255 Q771 1352 604 1352 Q461 1352 384 1282 Q311 1215 311 1114 Q311 997 406 941 Q462 908 532 888 Q593 871 672 852 Q863 805 941 767 Q1168 655 1168 412 Q1168 264 1090 153 Q976 -7 691 -27 Z " />
<glyph glyph-name="scedilla" unicode="&#x15f;" horiz-adv-x="1042" d="M583 -30 L548 -94 Q632 -101 669 -118 Q766 -162 766 -276 Q766 -388 680 -439 Q616 -477 513 -477 Q381 -477 263 -437 L300 -318 Q416 -357 508 -357 Q623 -357 623 -277 Q623 -200 497 -200 Q470 -200 425 -204 L408 -112 L455 -29 Q288 -13 197 54 Q76 142 73 332 L231 332 Q242 234 282 189 Q357 108 525 108 Q793 108 793 295 Q793 387 727 427 Q688 451 625 463 Q593 470 498 487 Q322 519 243 567 Q126 638 126 792 Q126 947 236 1035 Q333 1112 497 1112 Q631 1112 729 1062 Q883 983 886 782 L728 782 Q718 867 687 903 Q627 972 493 972 Q400 972 348 931 Q293 888 293 807 Q293 724 358 689 Q407 663 552 636 Q685 611 741 592 Q867 548 915 466 Q956 399 956 303 Q956 96 769 12 Q697 -21 583 -30 Z " />
<glyph glyph-name="Scaron" unicode="&#x160;" horiz-adv-x="1258" d="M97 429 L268 429 Q274 291 340 221 Q433 123 632 123 Q813 123 905 202 Q992 277 992 398 Q992 520 899 586 Q837 629 755 654 Q688 674 593 698 Q425 741 357 770 Q228 827 179 916 Q137 992 137 1096 Q137 1266 240 1375 Q362 1504 600 1504 Q1075 1504 1078 1052 L907 1052 Q902 1188 849 1255 Q771 1352 604 1352 Q461 1352 384 1282 Q311 1215 311 1114 Q311 997 406 941 Q462 908 532 888 Q593 871 672 852 Q863 805 941 767 Q1168 655 1168 412 Q1168 215 1042 99 Q903 -29 635 -29 Q309 -29 178 144 Q100 246 97 429 Z M599 1711 L774 1923 L943 1923 L651 1595 L547 1595 L255 1923 L424 1923 L599 1711 Z " />
<glyph glyph-name="scaron" unicode="&#x161;" horiz-adv-x="1042" d="M73 332 L231 332 Q242 234 282 189 Q357 108 525 108 Q793 108 793 295 Q793 387 727 427 Q688 451 625 463 Q593 470 498 487 Q322 519 243 567 Q126 638 126 792 Q126 947 236 1035 Q333 1112 497 1112 Q631 1112 729 1062 Q883 983 886 782 L728 782 Q718 867 687 903 Q627 972 493 972 Q400 972 348 931 Q293 888 293 807 Q293 724 358 689 Q407 663 552 636 Q685 611 741 592 Q866 548 915 467 Q956 399 956 305 Q956 145 845 57 Q731 -32 527 -32 Q80 -32 73 332 Z M508 1341 L683 1553 L852 1553 L560 1225 L456 1225 L164 1553 L333 1553 L508 1341 Z " />
<glyph glyph-name="Tcommaaccent" unicode="&#x162;" horiz-adv-x="1110" d="M466 0 L466 1327 L45 1327 L45 1475 L1064 1475 L1064 1327 L642 1327 L642 0 L466 0 Z M335 -480 L466 -152 L650 -152 L454 -480 L335 -480 Z " />
<glyph glyph-name="tcommaaccent" unicode="&#x163;" horiz-adv-x="758" d="M237 933 L76 933 L76 1080 L239 1080 L253 1400 L407 1400 L407 1080 L696 1080 L696 933 L407 933 L407 342 Q407 228 444 184 Q476 147 550 147 L723 147 L723 0 L543 0 Q237 0 237 315 L237 933 Z M199 -480 L330 -152 L514 -152 L318 -480 L199 -480 Z " />
<glyph glyph-name="Tcaron" unicode="&#x164;" horiz-adv-x="1110" d="M466 0 L466 1327 L45 1327 L45 1475 L1064 1475 L1064 1327 L642 1327 L642 0 L466 0 Z M556 1711 L731 1923 L900 1923 L608 1595 L504 1595 L212 1923 L381 1923 L556 1711 Z " />
<glyph glyph-name="tcaron" unicode="&#x165;" horiz-adv-x="874" d="M237 933 L76 933 L76 1080 L239 1080 L253 1400 L407 1400 L407 1080 L696 1080 L696 933 L407 933 L407 342 Q407 228 444 184 Q476 147 550 147 L723 147 L723 0 L543 0 Q237 0 237 315 L237 933 Z M620 1192 L732 1634 L921 1634 L749 1192 L620 1192 Z " />
<glyph glyph-name="Tbar" unicode="&#x166;" horiz-adv-x="1120" d="M472 0 L472 712 L175 712 L175 846 L472 846 L472 1327 L30 1327 L30 1475 L1089 1475 L1089 1327 L648 1327 L648 846 L945 846 L945 712 L648 712 L648 0 L472 0 Z " />
<glyph glyph-name="tbar" unicode="&#x167;" horiz-adv-x="733" d="M223 933 L62 933 L62 1080 L225 1080 L239 1400 L393 1400 L393 1080 L682 1080 L682 933 L393 933 L393 736 L682 736 L682 624 L393 624 L393 342 Q393 228 430 184 Q462 147 536 147 L709 147 L709 0 L530 0 Q223 0 223 315 L223 624 L38 624 L38 736 L223 736 L223 933 Z " />
<glyph glyph-name="Utilde" unicode="&#x168;" horiz-adv-x="1397" d="M175 1475 L351 1475 L351 554 Q351 356 404 264 Q483 126 698 126 Q914 126 992 264 Q1045 357 1045 554 L1045 1475 L1221 1475 L1221 612 Q1221 402 1196 295 Q1158 135 1031 53 Q902 -29 698 -29 Q380 -29 255 163 Q200 249 183 392 Q175 466 175 612 L175 1475 Z M499 1654 L393 1654 Q437 1856 584 1856 Q638 1856 717 1811 Q789 1771 810 1771 Q861 1771 896 1855 L1002 1855 Q977 1762 943 1717 Q893 1648 803 1648 Q744 1648 638 1710 Q599 1733 577 1733 Q529 1733 499 1654 Z " />
<glyph glyph-name="utilde" unicode="&#x169;" horiz-adv-x="1198" d="M168 1080 L338 1080 L338 444 Q338 305 356 244 Q387 138 508 138 Q610 138 720 226 Q773 268 853 359 L853 1080 L1023 1080 L1023 0 L853 0 L853 181 Q752 88 707 58 Q590 -19 465 -19 Q285 -19 216 121 Q182 192 172 299 Q168 349 168 453 L168 1080 Z M400 1284 L294 1284 Q338 1486 485 1486 Q540 1486 618 1442 Q690 1401 711 1401 Q760 1401 797 1485 L903 1485 Q877 1391 844 1347 Q793 1278 705 1278 Q645 1278 539 1340 Q500 1363 478 1363 Q430 1363 400 1284 Z " />
<glyph glyph-name="Umacron" unicode="&#x16a;" horiz-adv-x="1397" d="M175 1475 L351 1475 L351 554 Q351 356 404 264 Q483 126 698 126 Q914 126 992 264 Q1045 357 1045 554 L1045 1475 L1221 1475 L1221 612 Q1221 402 1196 295 Q1158 135 1031 53 Q902 -29 698 -29 Q380 -29 255 163 Q200 249 183 392 Q175 466 175 612 L175 1475 Z M434 1685 L434 1822 L962 1822 L962 1685 L434 1685 Z " />
<glyph glyph-name="umacron" unicode="&#x16b;" horiz-adv-x="1198" d="M168 1080 L338 1080 L338 444 Q338 305 356 244 Q387 138 508 138 Q610 138 720 226 Q773 268 853 359 L853 1080 L1023 1080 L1023 0 L853 0 L853 181 Q752 88 707 58 Q590 -19 465 -19 Q285 -19 216 121 Q182 192 172 299 Q168 349 168 453 L168 1080 Z M335 1315 L335 1452 L863 1452 L863 1315 L335 1315 Z " />
<glyph glyph-name="Ubreve" unicode="&#x16c;" horiz-adv-x="1397" d="M175 1475 L351 1475 L351 554 Q351 356 404 264 Q483 126 698 126 Q914 126 992 264 Q1045 357 1045 554 L1045 1475 L1221 1475 L1221 612 Q1221 402 1196 295 Q1158 135 1031 53 Q902 -29 698 -29 Q380 -29 255 163 Q200 249 183 392 Q175 466 175 612 L175 1475 Z M412 1900 L512 1900 Q519 1825 553 1791 Q599 1745 698 1745 Q805 1745 849 1799 Q875 1831 881 1900 L983 1900 Q970 1762 913 1697 Q845 1617 698 1617 Q535 1617 467 1714 Q422 1780 412 1900 Z " />
<glyph glyph-name="ubreve" unicode="&#x16d;" horiz-adv-x="1198" d="M168 1080 L338 1080 L338 444 Q338 305 356 244 Q387 138 508 138 Q610 138 720 226 Q773 268 853 359 L853 1080 L1023 1080 L1023 0 L853 0 L853 181 Q752 88 707 58 Q590 -19 465 -19 Q285 -19 216 121 Q182 192 172 299 Q168 349 168 453 L168 1080 Z M313 1530 L413 1530 Q420 1454 454 1421 Q500 1375 599 1375 Q706 1375 750 1429 Q776 1461 782 1530 L884 1530 Q871 1393 814 1327 Q747 1247 600 1247 Q435 1247 368 1344 Q323 1410 313 1530 Z " />
<glyph glyph-name="Uring" unicode="&#x16e;" horiz-adv-x="1397" d="M175 1475 L351 1475 L351 554 Q351 356 404 264 Q483 126 698 126 Q914 126 992 264 Q1045 357 1045 554 L1045 1475 L1221 1475 L1221 612 Q1221 402 1196 295 Q1158 135 1031 53 Q902 -29 698 -29 Q380 -29 255 163 Q200 249 183 392 Q175 466 175 612 L175 1475 Z M699 2016 Q813 2016 875 1947 Q931 1885 931 1788 Q931 1691 875 1629 Q813 1560 699 1560 Q584 1560 522 1629 Q466 1691 466 1791 Q466 1886 522 1947 Q586 2016 699 2016 Z M699 1918 Q577 1918 577 1790 Q577 1658 699 1658 Q820 1658 820 1788 Q820 1918 699 1918 Z " />
<glyph glyph-name="uring" unicode="&#x16f;" horiz-adv-x="1198" d="M168 1080 L338 1080 L338 444 Q338 305 356 244 Q387 138 508 138 Q610 138 720 226 Q773 268 853 359 L853 1080 L1023 1080 L1023 0 L853 0 L853 181 Q752 88 707 58 Q590 -19 465 -19 Q285 -19 216 121 Q182 192 172 299 Q168 349 168 453 L168 1080 Z M600 1652 Q714 1652 776 1583 Q832 1522 832 1424 Q832 1327 776 1266 Q714 1197 600 1197 Q485 1197 423 1266 Q367 1328 367 1427 Q367 1523 423 1583 Q486 1652 600 1652 Z M600 1554 Q478 1554 478 1426 Q478 1295 599 1295 Q721 1295 721 1425 Q721 1554 600 1554 Z " />
<glyph glyph-name="Uhungarumlaut" unicode="&#x170;" horiz-adv-x="1397" d="M175 1475 L351 1475 L351 554 Q351 356 404 264 Q483 126 698 126 Q914 126 992 264 Q1045 357 1045 554 L1045 1475 L1221 1475 L1221 612 Q1221 402 1196 295 Q1158 135 1031 53 Q902 -29 698 -29 Q380 -29 255 163 Q200 249 183 392 Q175 466 175 612 L175 1475 Z M498 1595 L634 1923 L807 1923 L600 1595 L498 1595 Z M768 1595 L915 1923 L1092 1923 L871 1595 L768 1595 Z " />
<glyph glyph-name="uhungarumlaut" unicode="&#x171;" horiz-adv-x="1198" d="M168 1080 L338 1080 L338 444 Q338 305 356 244 Q387 138 508 138 Q610 138 720 226 Q773 268 853 359 L853 1080 L1023 1080 L1023 0 L853 0 L853 181 Q752 88 707 58 Q590 -19 465 -19 Q285 -19 216 121 Q182 192 172 299 Q168 349 168 453 L168 1080 Z M398 1225 L534 1553 L707 1553 L500 1225 L398 1225 Z M668 1225 L815 1553 L992 1553 L771 1225 L668 1225 Z " />
<glyph glyph-name="Uogonek" unicode="&#x172;" horiz-adv-x="1397" d="M175 1475 L351 1475 L351 554 Q351 357 404 264 Q484 126 698 126 Q913 126 992 264 Q1045 356 1045 554 L1045 1475 L1221 1475 L1221 612 Q1221 402 1196 295 Q1137 44 857 -14 Q809 -52 778 -82 Q699 -160 699 -236 Q699 -275 719 -297 Q738 -318 791 -318 L894 -318 L894 -438 L793 -438 Q556 -438 556 -264 Q556 -145 707 -29 Q540 -23 452 10 Q264 80 207 267 Q175 374 175 612 L175 1475 Z " />
<glyph glyph-name="uogonek" unicode="&#x173;" horiz-adv-x="1198" d="M1023 0 Q966 -43 925 -83 Q847 -160 847 -236 Q847 -275 867 -297 Q886 -318 939 -318 L1042 -318 L1042 -438 L941 -438 Q704 -438 704 -264 Q704 -138 894 0 L853 0 L853 181 Q752 88 707 58 Q590 -19 465 -19 Q285 -19 216 121 Q182 192 172 299 Q168 349 168 453 L168 1080 L338 1080 L338 444 Q338 305 356 244 Q387 138 508 138 Q610 138 720 226 Q773 268 853 359 L853 1080 L1023 1080 L1023 0 Z " />
<glyph glyph-name="Wcircumflex" unicode="&#x174;" horiz-adv-x="1888" d="M448 -32 L80 1475 L259 1475 L529 328 L896 1483 L993 1483 L1359 328 L1629 1475 L1809 1475 L1440 -32 L1312 -32 L944 1131 L577 -32 L448 -32 Z M943 1806 L768 1595 L599 1595 L891 1923 L995 1923 L1287 1595 L1118 1595 L943 1806 Z " />
<glyph glyph-name="wcircumflex" unicode="&#x175;" horiz-adv-x="1582" d="M377 -25 L55 1080 L228 1080 L452 276 L745 1080 L837 1080 L1130 276 L1354 1080 L1527 1080 L1205 -25 L1088 -25 L791 797 L494 -25 L377 -25 Z M790 1436 L615 1225 L446 1225 L738 1553 L842 1553 L1134 1225 L965 1225 L790 1436 Z " />
<glyph glyph-name="Ycircumflex" unicode="&#x176;" horiz-adv-x="1130" d="M477 0 L477 577 L-25 1475 L167 1475 L565 751 L962 1475 L1154 1475 L653 577 L653 0 L477 0 Z M564 1806 L389 1595 L220 1595 L512 1923 L616 1923 L908 1595 L739 1595 L564 1806 Z " />
<glyph glyph-name="ycircumflex" unicode="&#x177;" horiz-adv-x="1016" d="M425 41 L24 1080 L203 1080 L508 246 L812 1080 L992 1080 L541 -86 Q480 -241 450 -290 Q379 -406 265 -428 Q215 -438 125 -439 L125 -291 Q229 -290 268 -264 Q322 -228 365 -115 L425 41 Z M509 1436 L334 1225 L165 1225 L457 1553 L561 1553 L853 1225 L684 1225 L509 1436 Z " />
<glyph glyph-name="Zacute" unicode="&#x179;" horiz-adv-x="1127" d="M43 0 L43 133 L811 1327 L103 1327 L103 1475 L1022 1475 L1022 1362 L244 148 L1060 148 L1060 0 L43 0 Z M454 1595 L651 1923 L843 1923 L576 1595 L454 1595 Z " />
<glyph glyph-name="zacute" unicode="&#x17a;" horiz-adv-x="943" d="M41 0 L41 134 L654 933 L93 933 L93 1080 L862 1080 L862 957 L243 147 L878 147 L878 0 L41 0 Z M388 1225 L585 1553 L777 1553 L510 1225 L388 1225 Z " />
<glyph glyph-name="Zdotaccent" unicode="&#x17b;" horiz-adv-x="1127" d="M43 0 L43 133 L811 1327 L103 1327 L103 1475 L1022 1475 L1022 1362 L244 148 L1060 148 L1060 0 L43 0 Z M577 1856 Q627 1856 661 1819 Q690 1787 690 1744 Q690 1694 652 1661 Q619 1632 575 1632 Q524 1632 490 1669 Q460 1701 460 1745 Q460 1794 498 1828 Q530 1856 577 1856 Z " />
<glyph glyph-name="zdotaccent" unicode="&#x17c;" horiz-adv-x="943" d="M41 0 L41 134 L654 933 L93 933 L93 1080 L862 1080 L862 957 L243 147 L878 147 L878 0 L41 0 Z M508 1491 Q557 1491 592 1454 Q621 1423 621 1379 Q621 1329 583 1296 Q550 1267 506 1267 Q455 1267 421 1304 Q391 1336 391 1380 Q391 1429 429 1463 Q461 1491 508 1491 Z " />
<glyph glyph-name="Zcaron" unicode="&#x17d;" horiz-adv-x="1127" d="M43 0 L43 133 L811 1327 L103 1327 L103 1475 L1022 1475 L1022 1362 L244 148 L1060 148 L1060 0 L43 0 Z M578 1711 L753 1923 L922 1923 L630 1595 L526 1595 L234 1923 L403 1923 L578 1711 Z " />
<glyph glyph-name="zcaron" unicode="&#x17e;" horiz-adv-x="943" d="M41 0 L41 134 L654 933 L93 933 L93 1080 L862 1080 L862 957 L243 147 L878 147 L878 0 L41 0 Z M507 1341 L682 1553 L851 1553 L559 1225 L455 1225 L163 1553 L332 1553 L507 1341 Z " />
<glyph glyph-name="uni018F" unicode="&#x18f;" horiz-adv-x="1560" d="M110 842 L1264 842 Q1253 1000 1199 1109 Q1133 1242 1019 1300 Q924 1349 782 1349 Q589 1349 475 1259 Q426 1220 377 1142 L228 1228 Q296 1332 367 1385 Q523 1504 784 1504 Q1143 1504 1310 1262 Q1450 1059 1450 737 Q1450 415 1310 212 Q1143 -29 788 -29 Q498 -29 337 116 Q158 276 122 575 Q110 672 110 842 Z M294 699 Q301 563 313 500.5 Q325 438 355 376 Q423 235 541 175 Q636 126 786 126 Q1114 126 1223 421 Q1265 536 1268 699 L294 699 Z " />
<glyph glyph-name="uni01CD" unicode="&#x1cd;" horiz-adv-x="1343" d="M985 414 L359 414 L203 0 L21 0 L601 1475 L743 1475 L1323 0 L1141 0 L985 414 Z M932 558 L672 1249 L411 558 L932 558 Z M673 1711 L848 1923 L1017 1923 L725 1595 L621 1595 L329 1923 L498 1923 L673 1711 Z " />
<glyph glyph-name="uni01CE" unicode="&#x1ce;" horiz-adv-x="1262" d="M926 0 L926 160 Q795 -32 571 -32 Q351 -32 223 132 Q100 290 100 540 Q100 790 223 948 Q352 1112 570 1112 Q791 1112 916 929 L916 1080 L1087 1080 L1087 0 L926 0 Z M589 965 Q446 965 359 847 Q273 730 273 540 Q273 350 359 233 Q445 115 589 115 Q744 115 835 249 Q916 370 916 535 Q916 714 835 831 Q741 965 589 965 Z M616 1341 L791 1553 L960 1553 L668 1225 L564 1225 L272 1553 L441 1553 L616 1341 Z " />
<glyph glyph-name="uni01D3" unicode="&#x1d3;" horiz-adv-x="1397" d="M175 1475 L351 1475 L351 554 Q351 356 404 264 Q483 126 698 126 Q914 126 992 264 Q1045 357 1045 554 L1045 1475 L1221 1475 L1221 612 Q1221 402 1196 295 Q1158 135 1031 53 Q902 -29 698 -29 Q380 -29 255 163 Q200 249 183 392 Q175 466 175 612 L175 1475 Z M699 1711 L874 1923 L1043 1923 L751 1595 L647 1595 L355 1923 L524 1923 L699 1711 Z " />
<glyph glyph-name="uni01D4" unicode="&#x1d4;" horiz-adv-x="1198" d="M168 1080 L338 1080 L338 444 Q338 305 356 244 Q387 138 508 138 Q610 138 720 226 Q773 268 853 359 L853 1080 L1023 1080 L1023 0 L853 0 L853 181 Q752 88 707 58 Q590 -19 465 -19 Q285 -19 216 121 Q182 192 172 299 Q168 349 168 453 L168 1080 Z M600 1341 L775 1553 L944 1553 L652 1225 L548 1225 L256 1553 L425 1553 L600 1341 Z " />
<glyph glyph-name="uni01DD" unicode="&#x1dd;" horiz-adv-x="1226" d="M99 623 L946 623 Q926 748 880 818 Q784 965 603 965 Q418 965 231 830 L143 955 Q358 1112 605 1112 Q843 1112 986 948 Q1125 788 1125 540 Q1125 292 986 133 Q843 -32 612 -32 Q381 -32 237 133 Q98 292 98 550 Q98 578 99 623 Z M275 495 Q291 354 329 287 Q426 115 611 115 Q734 115 820 192 Q911 273 938 409 Q944 444 949 495 L275 495 Z " />
<glyph glyph-name="Gcaron" unicode="&#x1e6;" horiz-adv-x="1511" d="M866 600 L866 742 L1348 742 L1348 59 Q1095 -29 788 -29 Q561 -29 426 48 Q256 143 174 348 Q110 505 110 725 Q110 1090 292 1303 Q464 1503 779 1503 Q1100 1503 1242 1316 Q1322 1210 1324 1046 L1153 1046 Q1147 1166 1081 1239 Q981 1350 779 1350 Q529 1350 406 1170 Q290 1001 290 727 Q290 443 421 278 Q488 195 580 158 Q669 124 801 124 Q989 124 1178 190 L1178 600 L866 600 Z M763 1711 L938 1923 L1107 1923 L815 1595 L711 1595 L419 1923 L588 1923 L763 1711 Z " />
<glyph glyph-name="gcaron" unicode="&#x1e7;" horiz-adv-x="1272" d="M926 158 Q802 -23 577 -23 Q355 -23 225 139 Q100 294 100 540 Q100 787 222 944 Q352 1112 578 1112 Q807 1112 937 920 L937 1080 L1097 1080 L1097 159 Q1097 -14 1075 -117 Q1000 -467 601 -467 Q344 -467 148 -329 L230 -200 Q295 -245 345 -269 Q463 -324 602 -324 Q802 -324 875 -185 Q912 -115 921 -10 Q926 44 926 125 L926 158 Z M594 965 Q448 965 360 847 Q273 730 273 541 Q273 354 360 239 Q447 124 595 124 Q751 124 843 255 Q926 373 926 535 Q926 714 843 831 Q748 965 594 965 Z M631 1341 L806 1553 L975 1553 L683 1225 L579 1225 L287 1553 L456 1553 L631 1341 Z " />
<glyph glyph-name="uni01F4" unicode="&#x1f4;" horiz-adv-x="1511" d="M866 600 L866 742 L1348 742 L1348 59 Q1095 -29 788 -29 Q561 -29 426 48 Q256 143 174 348 Q110 505 110 725 Q110 1090 292 1303 Q464 1503 779 1503 Q1100 1503 1242 1316 Q1322 1210 1324 1046 L1153 1046 Q1147 1166 1081 1239 Q981 1350 779 1350 Q529 1350 406 1170 Q290 1001 290 727 Q290 443 421 278 Q488 195 580 158 Q669 124 801 124 Q989 124 1178 190 L1178 600 L866 600 Z M644 1595 L841 1923 L1033 1923 L766 1595 L644 1595 Z " />
<glyph glyph-name="uni01F5" unicode="&#x1f5;" horiz-adv-x="1272" d="M926 158 Q802 -23 577 -23 Q355 -23 225 139 Q100 294 100 540 Q100 787 222 944 Q352 1112 578 1112 Q807 1112 937 920 L937 1080 L1097 1080 L1097 159 Q1097 -14 1075 -117 Q1000 -467 601 -467 Q344 -467 148 -329 L230 -200 Q295 -245 345 -269 Q463 -324 602 -324 Q802 -324 875 -185 Q912 -115 921 -10 Q926 44 926 125 L926 158 Z M594 965 Q448 965 360 847 Q273 730 273 541 Q273 354 360 239 Q447 124 595 124 Q751 124 843 255 Q926 373 926 535 Q926 714 843 831 Q748 965 594 965 Z M514 1225 L711 1553 L903 1553 L636 1225 L514 1225 Z " />
<glyph glyph-name="Scommaaccent" unicode="&#x218;" horiz-adv-x="1258" d="M97 429 L268 429 Q274 291 340 221 Q433 123 632 123 Q813 123 905 202 Q992 277 992 398 Q992 520 899 586 Q837 629 755 654 Q688 674 593 698 Q425 741 357 770 Q228 827 179 916 Q137 992 137 1096 Q137 1266 240 1375 Q362 1504 600 1504 Q1075 1504 1078 1052 L907 1052 Q902 1188 849 1255 Q771 1352 604 1352 Q461 1352 384 1282 Q311 1215 311 1114 Q311 997 406 941 Q462 908 532 888 Q593 871 672 852 Q863 805 941 767 Q1168 655 1168 412 Q1168 215 1042 99 Q903 -29 635 -29 Q309 -29 178 144 Q100 246 97 429 Z M429 -480 L560 -152 L744 -152 L548 -480 L429 -480 Z " />
<glyph glyph-name="scommaaccent" unicode="&#x219;" horiz-adv-x="1042" d="M73 332 L231 332 Q242 234 282 189 Q357 108 525 108 Q793 108 793 295 Q793 387 727 427 Q688 451 625 463 Q593 470 498 487 Q322 519 243 567 Q126 638 126 792 Q126 947 236 1035 Q333 1112 497 1112 Q631 1112 729 1062 Q883 983 886 782 L728 782 Q718 867 687 903 Q627 972 493 972 Q400 972 348 931 Q293 888 293 807 Q293 724 358 689 Q407 663 552 636 Q685 611 741 592 Q866 548 915 467 Q956 399 956 305 Q956 145 845 57 Q731 -32 527 -32 Q80 -32 73 332 Z M316 -480 L447 -152 L631 -152 L435 -480 L316 -480 Z " />
<glyph glyph-name="uni021A" unicode="&#x21a;" horiz-adv-x="1110" d="M466 0 L466 1327 L45 1327 L45 1475 L1064 1475 L1064 1327 L642 1327 L642 0 L466 0 Z M335 -480 L466 -152 L650 -152 L454 -480 L335 -480 Z " />
<glyph glyph-name="uni021B" unicode="&#x21b;" horiz-adv-x="758" d="M237 933 L76 933 L76 1080 L239 1080 L253 1400 L407 1400 L407 1080 L696 1080 L696 933 L407 933 L407 342 Q407 228 444 184 Q476 147 550 147 L723 147 L723 0 L543 0 Q237 0 237 315 L237 933 Z M199 -480 L330 -152 L514 -152 L318 -480 L199 -480 Z " />
<glyph glyph-name="uni0226" unicode="&#x226;" horiz-adv-x="1343" d="M985 414 L359 414 L203 0 L21 0 L601 1475 L743 1475 L1323 0 L1141 0 L985 414 Z M932 558 L672 1249 L411 558 L932 558 Z M673 1856 Q723 1856 757 1819 Q786 1787 786 1744 Q786 1694 748 1661 Q715 1632 671 1632 Q620 1632 586 1669 Q556 1701 556 1745 Q556 1794 594 1828 Q626 1856 673 1856 Z " />
<glyph glyph-name="uni0227" unicode="&#x227;" horiz-adv-x="1262" d="M926 0 L926 160 Q795 -32 571 -32 Q351 -32 223 132 Q100 290 100 540 Q100 790 223 948 Q352 1112 570 1112 Q791 1112 916 929 L916 1080 L1087 1080 L1087 0 L926 0 Z M589 965 Q446 965 359 847 Q273 730 273 540 Q273 350 359 233 Q445 115 589 115 Q744 115 835 249 Q916 370 916 535 Q916 714 835 831 Q741 965 589 965 Z M640 1491 Q689 1491 724 1454 Q753 1423 753 1379 Q753 1329 715 1296 Q682 1267 638 1267 Q587 1267 553 1304 Q523 1336 523 1380 Q523 1429 561 1463 Q593 1491 640 1491 Z " />
<glyph glyph-name="uni0237" unicode="&#x237;" horiz-adv-x="554" d="M201 1080 L371 1080 L371 23 Q371 -147 343 -229 Q278 -425 21 -439 L21 -291 Q84 -284 114 -268 Q170 -237 189 -153 Q201 -100 201 21 L201 1080 Z " />
<glyph glyph-name="uni0259" unicode="&#x259;" horiz-adv-x="1226" d="M99 623 L946 623 Q926 748 880 818 Q784 965 603 965 Q418 965 231 830 L143 955 Q358 1112 605 1112 Q843 1112 986 948 Q1125 788 1125 540 Q1125 292 986 133 Q843 -32 612 -32 Q381 -32 237 133 Q98 292 98 550 Q98 578 99 623 Z M275 495 Q291 354 329 287 Q426 115 611 115 Q734 115 820 192 Q911 273 938 409 Q944 444 949 495 L275 495 Z " />
<glyph glyph-name="uni02C9" unicode="&#x2c9;" horiz-adv-x="1024" d="M248 1315 L248 1452 L776 1452 L776 1315 L248 1315 Z " />
<glyph glyph-name="uni0312" unicode="&#x312;" horiz-adv-x="1024" d="M757 1553 L560 1225 L368 1225 L635 1553 L757 1553 Z " />
<glyph glyph-name="uni0313" unicode="&#x313;" horiz-adv-x="219" d="M-41 1103 L71 1545 L260 1545 L88 1103 L-41 1103 Z " />
<glyph glyph-name="uni031B" unicode="&#x31b;" horiz-adv-x="219" d="M-41 1103 L71 1545 L260 1545 L88 1103 L-41 1103 Z " />
<glyph glyph-name="commaaccent" unicode="&#x326;" horiz-adv-x="1024" d="M332 -480 L463 -152 L647 -152 L451 -480 L332 -480 Z " />
<glyph glyph-name="uni037E" unicode="&#x37e;" horiz-adv-x="645" d="M179 -273 L313 217 L528 217 L327 -273 L179 -273 Z M425 911 Q479 911 517 870 Q550 835 550 787 Q550 731 508 695 Q472 663 423 663 Q366 663 328 704 Q295 739 295 788 Q295 842 337 879 Q373 911 425 911 Z " />
<glyph glyph-name="uni0387" unicode="&#x387;" horiz-adv-x="641" d="M325 738 Q379 738 417 697 Q450 662 450 614 Q450 559 408 522 Q371 490 323 490 Q266 490 228 531 Q195 566 195 615 Q195 669 237 706 Q273 738 325 738 Z " />
<glyph glyph-name="uni0400" unicode="&#x400;" horiz-adv-x="1193" d="M184 0 L184 1475 L1095 1475 L1095 1327 L360 1327 L360 840 L973 840 L973 693 L360 693 L360 148 L1111 148 L1111 0 L184 0 Z M660 1595 L393 1923 L585 1923 L782 1595 L660 1595 Z " />
<glyph glyph-name="afii10023" unicode="&#x401;" horiz-adv-x="1193" d="M184 0 L184 1475 L1095 1475 L1095 1327 L360 1327 L360 840 L973 840 L973 693 L360 693 L360 148 L1111 148 L1111 0 L184 0 Z M444 1850 Q492 1850 524 1815 Q552 1785 552 1744 Q552 1696 516 1665 Q484 1637 442 1637 Q394 1637 360 1672 Q332 1702 332 1744 Q332 1791 368 1823 Q399 1850 444 1850 Z M829 1850 Q876 1850 909 1815 Q937 1785 937 1744 Q937 1696 901 1665 Q869 1637 827 1637 Q779 1637 745 1672 Q717 1702 717 1744 Q717 1791 753 1823 Q784 1850 829 1850 Z " />
<glyph glyph-name="afii10051" unicode="&#x402;" horiz-adv-x="1576" d="M454 0 L454 1328 L51 1328 L51 1475 L1114 1475 L1114 1328 L630 1328 L630 822 Q719 891 771 920 Q892 987 1026 987 Q1225 987 1305 857 Q1343 795 1354 693 Q1359 645 1359 551 L1359 -45 Q1359 -187 1332 -256 Q1288 -373 1155 -412 Q1104 -428 1018 -431 L1018 -284 Q1076 -279 1106 -267 Q1159 -245 1177 -181 Q1189 -140 1189 -49 L1189 560 Q1189 683 1166 739 Q1127 831 983 831 Q877 831 762 756 Q712 724 630 650 L630 0 L454 0 Z " />
<glyph glyph-name="afii10052" unicode="&#x403;" horiz-adv-x="1101" d="M184 0 L184 1475 L1046 1475 L1046 1328 L360 1328 L360 0 L184 0 Z M539 1595 L736 1923 L928 1923 L661 1595 L539 1595 Z " />
<glyph glyph-name="afii10053" unicode="&#x404;" horiz-adv-x="1376" d="M936 704 L291 704 Q294 501 348 368 Q405 229 503 170 Q587 121 718 121 Q1093 121 1105 429 L1276 429 Q1274 336 1258 277 Q1209 102 1025 25 Q894 -29 717 -29 Q379 -29 233 212 Q110 415 110 736 Q110 1058 237 1262 Q388 1504 730 1504 Q1036 1504 1164 1331 Q1242 1227 1245 1060 L1075 1060 Q1058 1354 733 1354 Q543 1354 441 1251 Q338 1148 307 955 Q300 910 294 847 L936 847 L936 704 Z " />
<glyph glyph-name="afii10054" unicode="&#x405;" horiz-adv-x="1258" d="M97 429 L268 429 Q274 291 340 221 Q433 123 632 123 Q813 123 905 202 Q992 277 992 398 Q992 520 899 586 Q837 629 755 654 Q688 674 593 698 Q425 741 357 770 Q228 827 179 916 Q137 992 137 1096 Q137 1266 240 1375 Q362 1504 600 1504 Q1075 1504 1078 1052 L907 1052 Q902 1188 849 1255 Q771 1352 604 1352 Q461 1352 384 1282 Q311 1215 311 1114 Q311 997 406 941 Q462 908 532 888 Q593 871 672 852 Q863 805 941 767 Q1168 655 1168 412 Q1168 215 1042 99 Q903 -29 635 -29 Q309 -29 178 144 Q100 246 97 429 Z " />
<glyph glyph-name="afii10055" unicode="&#x406;" horiz-adv-x="545" d="M184 0 L184 1475 L360 1475 L360 0 L184 0 Z " />
<glyph glyph-name="afii10056" unicode="&#x407;" horiz-adv-x="553" d="M189 0 L189 1475 L365 1475 L365 0 L189 0 Z M84 1850 Q132 1850 165 1815 Q193 1785 193 1744 Q193 1696 156 1665 Q124 1637 82 1637 Q33 1637 0 1672 Q-29 1702 -29 1744 Q-29 1791 8 1823 Q38 1850 84 1850 Z M474 1850 Q522 1850 555 1815 Q583 1785 583 1744 Q583 1696 546 1665 Q515 1637 472 1637 Q423 1637 389 1672 Q361 1702 361 1744 Q361 1791 398 1823 Q429 1850 474 1850 Z " />
<glyph glyph-name="afii10057" unicode="&#x408;" horiz-adv-x="586" d="M225 1475 L401 1475 L401 133 Q401 -25 373 -102 Q325 -235 187 -277 Q133 -293 39 -297 L39 -150 Q148 -141 184 -91 Q211 -55 219 4 Q225 41 225 123 L225 1475 Z " />
<glyph glyph-name="afii10058" unicode="&#x409;" horiz-adv-x="2130" d="M1045 0 L1045 1328 L553 1328 Q528 985 510 847 Q441 298 292 113 Q226 31 126 10 Q79 0 11 0 L-24 0 L-24 147 L10 147 Q83 147 124 184 Q251 300 320 725 Q361 980 375 1257 Q378 1309 384 1475 L1221 1475 L1221 882 L1518 882 Q1757 882 1881 796 Q2044 681 2044 441 Q2044 201 1881 86 Q1757 0 1518 0 L1045 0 Z M1221 147 L1479 147 Q1667 147 1756 208 Q1864 283 1864 443 Q1864 617 1737 690 Q1650 739 1479 739 L1221 739 L1221 147 Z " />
<glyph glyph-name="afii10059" unicode="&#x40a;" horiz-adv-x="2105" d="M184 0 L184 1475 L360 1475 L360 850 L1009 850 L1009 1475 L1181 1475 L1181 851 L1491 851 Q1732 851 1855 768 Q2018 657 2018 425 Q2018 194 1855 83 Q1731 0 1491 0 L1009 0 L1009 702 L360 702 L360 0 L184 0 Z M1181 147 L1453 147 Q1641 147 1730 205 Q1838 275 1838 427 Q1838 593 1711 661 Q1624 708 1453 708 L1181 708 L1181 147 Z " />
<glyph glyph-name="afii10060" unicode="&#x40b;" horiz-adv-x="1589" d="M454 0 L454 1328 L51 1328 L51 1475 L1114 1475 L1114 1328 L630 1328 L630 822 Q718 891 771 920 Q893 987 1026 987 Q1225 987 1305 857 Q1343 795 1354 693 Q1359 645 1359 551 L1359 0 L1189 0 L1189 560 Q1189 683 1166 739 Q1127 831 984 831 Q877 831 762 756 Q712 723 630 650 L630 0 L454 0 Z " />
<glyph glyph-name="afii10061" unicode="&#x40c;" horiz-adv-x="1276" d="M184 0 L184 1475 L360 1475 L360 847 L617 847 L1043 1475 L1238 1475 L767 790 Q834 748 877 687 Q913 636 965 531 L1229 0 L1015 0 L816 436 Q747 588 693 642 Q630 704 509 704 L360 704 L360 0 L184 0 Z M578 1595 L775 1923 L967 1923 L700 1595 L578 1595 Z " />
<glyph glyph-name="uni040D" unicode="&#x40d;" horiz-adv-x="1429" d="M184 0 L184 1475 L360 1475 L360 383 L1068 1327 L1068 1475 L1244 1475 L1244 0 L1068 0 L1068 1089 L360 148 L360 0 L184 0 Z M714 1595 L447 1923 L639 1923 L836 1595 L714 1595 Z " />
<glyph glyph-name="afii10062" unicode="&#x40e;" horiz-adv-x="1144" d="M503 438 L12 1475 L201 1475 L589 625 L977 1475 L1158 1475 L483 0 L302 0 L503 438 Z M287 1900 L387 1900 Q394 1825 428 1791 Q474 1745 573 1745 Q680 1745 724 1799 Q750 1831 756 1900 L858 1900 Q845 1762 788 1697 Q720 1617 573 1617 Q410 1617 342 1714 Q297 1780 287 1900 Z " />
<glyph glyph-name="afii10145" unicode="&#x40f;" horiz-adv-x="1361" d="M184 0 L184 1475 L360 1475 L360 147 L1000 147 L1000 1475 L1176 1475 L1176 0 L773 0 L745 -360 L615 -360 L587 0 L184 0 Z " />
<glyph glyph-name="afii10017" unicode="&#x410;" horiz-adv-x="1343" d="M985 414 L359 414 L203 0 L21 0 L601 1475 L743 1475 L1323 0 L1141 0 L985 414 Z M932 558 L672 1249 L411 558 L932 558 Z " />
<glyph glyph-name="afii10018" unicode="&#x411;" horiz-adv-x="1287" d="M184 0 L184 1475 L1082 1475 L1082 1328 L356 1328 L356 882 L653 882 Q892 882 1016 796 Q1179 681 1179 441 Q1179 201 1016 86 Q892 0 653 0 L184 0 Z M356 147 L614 147 Q802 147 891 208 Q999 283 999 443 Q999 617 872 690 Q785 739 614 739 L356 739 L356 147 Z " />
<glyph glyph-name="afii10019" unicode="&#x412;" horiz-adv-x="1343" d="M184 0 L184 1475 L672 1475 Q903 1475 1026 1384 Q1153 1290 1153 1108 Q1153 974 1075 889 Q1030 841 947 804 Q1067 776 1139 698 Q1235 593 1235 429 Q1235 201 1058 86 Q925 0 666 0 L184 0 Z M356 865 L673 865 Q815 865 892 920 Q977 980 977 1094 Q977 1223 877 1285 Q800 1333 670 1333 L356 1333 L356 865 Z M356 142 L630 142 Q837 142 935 203 Q1055 278 1055 432 Q1055 590 933 666 Q842 722 695 722 L356 722 L356 142 Z " />
<glyph glyph-name="afii10020" unicode="&#x413;" horiz-adv-x="1101" d="M184 0 L184 1475 L1046 1475 L1046 1328 L360 1328 L360 0 L184 0 Z " />
<glyph glyph-name="afii10021" unicode="&#x414;" horiz-adv-x="1407" d="M1190 0 L148 0 L114 -360 L-22 -360 L-24 147 L95 147 Q239 362 309 704 Q357 937 372 1240 Q376 1320 381 1475 L1221 1475 L1221 147 L1360 147 L1360 -360 L1224 -360 L1190 0 Z M1045 147 L1045 1328 L553 1328 Q522 891 481 688 Q419 379 286 147 L1045 147 Z " />
<glyph glyph-name="afii10022" unicode="&#x415;" horiz-adv-x="1193" d="M184 0 L184 1475 L1095 1475 L1095 1327 L360 1327 L360 840 L973 840 L973 693 L360 693 L360 148 L1111 148 L1111 0 L184 0 Z " />
<glyph glyph-name="afii10024" unicode="&#x416;" horiz-adv-x="1875" d="M850 0 L850 704 L761 704 Q631 704 565 628 Q517 573 455 436 L256 0 L41 0 L306 531 Q365 650 406 703 Q443 752 504 790 L33 1475 L228 1475 L654 847 L850 847 L850 1475 L1020 1475 L1020 847 L1216 847 L1642 1475 L1837 1475 L1366 790 Q1433 749 1476 687 Q1512 635 1564 531 L1829 0 L1614 0 L1415 436 Q1346 588 1292 642 Q1230 704 1109 704 L1020 704 L1020 0 L850 0 Z " />
<glyph glyph-name="afii10025" unicode="&#x417;" horiz-adv-x="1309" d="M422 707 L422 850 L613 850 Q781 850 861 907 Q967 980 967 1111 Q967 1227 888 1288 Q804 1354 640 1354 Q317 1354 301 1060 L130 1060 Q140 1504 653 1504 Q889 1504 1017 1411 Q1146 1317 1146 1126 Q1146 993 1083 904 Q1044 849 967 803 Q1202 727 1202 438 Q1202 -29 660 -29 Q313 -29 182 143 Q104 244 100 429 L271 429 Q277 289 344 220 Q440 121 644 121 Q1022 121 1022 422 Q1022 594 902 662 Q823 707 658 707 L422 707 Z " />
<glyph glyph-name="afii10026" unicode="&#x418;" horiz-adv-x="1429" d="M184 0 L184 1475 L360 1475 L360 383 L1068 1327 L1068 1475 L1244 1475 L1244 0 L1068 0 L1068 1089 L360 148 L360 0 L184 0 Z " />
<glyph glyph-name="afii10027" unicode="&#x419;" horiz-adv-x="1429" d="M184 0 L184 1475 L360 1475 L360 383 L1068 1327 L1068 1475 L1244 1475 L1244 0 L1068 0 L1068 1089 L360 148 L360 0 L184 0 Z M418 1900 L518 1900 Q525 1825 559 1791 Q605 1745 704 1745 Q811 1745 855 1799 Q881 1831 887 1900 L989 1900 Q976 1762 919 1697 Q851 1617 704 1617 Q541 1617 473 1714 Q428 1780 418 1900 Z " />
<glyph glyph-name="afii10028" unicode="&#x41a;" horiz-adv-x="1276" d="M184 0 L184 1475 L360 1475 L360 847 L617 847 L1043 1475 L1238 1475 L767 790 Q834 748 877 687 Q913 636 965 531 L1229 0 L1015 0 L816 436 Q747 588 693 642 Q630 704 509 704 L360 704 L360 0 L184 0 Z " />
<glyph glyph-name="afii10029" unicode="&#x41b;" horiz-adv-x="1413" d="M1045 0 L1045 1328 L553 1328 Q527 985 510 848 Q441 299 292 113 Q226 31 126 10 Q79 0 11 0 L-24 0 L-24 148 L10 148 Q83 148 124 185 Q251 301 320 725 Q361 980 375 1257 Q378 1309 384 1475 L1221 1475 L1221 0 L1045 0 Z " />
<glyph glyph-name="afii10030" unicode="&#x41c;" horiz-adv-x="1713" d="M120 0 L239 1475 L410 1475 L857 300 L1304 1475 L1475 1475 L1594 0 L1426 0 L1336 1133 L906 0 L808 0 L378 1133 L288 0 L120 0 Z " />
<glyph glyph-name="afii10031" unicode="&#x41d;" horiz-adv-x="1433" d="M184 0 L184 1475 L360 1475 L360 850 L1072 850 L1072 1475 L1248 1475 L1248 0 L1072 0 L1072 703 L360 703 L360 0 L184 0 Z " />
<glyph glyph-name="afii10032" unicode="&#x41e;" horiz-adv-x="1543" d="M772 1504 Q1130 1504 1295 1262 Q1432 1061 1432 738 Q1432 415 1295 213 Q1131 -29 773 -29 Q411 -29 247 213 Q110 415 110 747 Q110 1064 247 1262 Q415 1504 772 1504 Z M771 1349 Q518 1349 402 1183 Q290 1024 290 746 Q290 546 335 422 Q399 244 535 175 Q629 126 778 126 Q1025 126 1140 292 Q1252 453 1252 738 Q1252 1349 771 1349 Z " />
<glyph glyph-name="afii10033" unicode="&#x41f;" horiz-adv-x="1420" d="M184 0 L184 1475 L1235 1475 L1235 0 L1059 0 L1059 1328 L360 1328 L360 0 L184 0 Z " />
<glyph glyph-name="afii10034" unicode="&#x420;" horiz-adv-x="1269" d="M184 0 L184 1475 L591 1475 Q746 1475 846 1456 Q1021 1423 1111 1299 Q1192 1188 1192 1022 Q1192 859 1113 750 Q1026 631 847 596 Q729 573 592 573 L360 573 L360 0 L184 0 Z M360 718 L601 718 Q802 718 896 783 Q1012 863 1012 1025 Q1012 1180 904 1259 Q811 1327 606 1327 L360 1327 L360 718 Z " />
<glyph glyph-name="afii10035" unicode="&#x421;" horiz-adv-x="1402" d="M1188 342 L1302 227 Q1214 111 1111 53 Q964 -29 759 -29 Q423 -29 259 193 Q110 393 110 727 Q110 1092 284 1303 Q448 1503 753 1503 Q1057 1503 1196 1315 Q1274 1210 1278 1046 L1107 1046 Q1101 1164 1037 1239 Q942 1350 754 1350 Q517 1350 399 1170 Q290 1002 290 728 Q290 447 416 281 Q533 126 765 126 Q932 126 1056 210 Q1107 245 1188 342 Z " />
<glyph glyph-name="afii10036" unicode="&#x422;" horiz-adv-x="1110" d="M466 0 L466 1327 L45 1327 L45 1475 L1064 1475 L1064 1327 L642 1327 L642 0 L466 0 Z " />
<glyph glyph-name="afii10037" unicode="&#x423;" horiz-adv-x="1144" d="M503 438 L12 1475 L201 1475 L589 625 L977 1475 L1158 1475 L483 0 L302 0 L503 438 Z " />
<glyph glyph-name="afii10038" unicode="&#x424;" horiz-adv-x="1859" d="M836 -41 L836 149 Q583 164 420 246 Q114 400 114 738 Q114 952 244 1099 Q388 1262 668 1308 Q741 1320 836 1326 L836 1516 L1001 1516 L1001 1326 Q1276 1311 1439 1229 Q1745 1075 1745 738 Q1745 525 1615 377 Q1469 214 1179 168 Q1100 155 1001 149 L1001 -41 L836 -41 Z M836 295 L836 1181 Q642 1172 517 1109 Q294 997 294 738 Q294 327 836 295 Z M1001 294 Q1219 305 1342 367 Q1565 480 1565 738 Q1565 1019 1303 1126 Q1191 1172 1001 1181 L1001 294 Z " />
<glyph glyph-name="afii10039" unicode="&#x425;" horiz-adv-x="1214" d="M503 769 L56 1475 L258 1475 L627 896 L959 1475 L1154 1475 L714 754 L1191 0 L989 0 L590 627 L216 0 L19 0 L503 769 Z " />
<glyph glyph-name="afii10040" unicode="&#x426;" horiz-adv-x="1409" d="M184 0 L184 1475 L360 1475 L360 147 L1038 147 L1038 1475 L1214 1475 L1214 147 L1352 147 L1352 -360 L1217 -360 L1183 0 L184 0 Z " />
<glyph glyph-name="afii10041" unicode="&#x427;" horiz-adv-x="1330" d="M970 0 L970 580 Q952 569 944 563 Q843 499 784 478 Q676 440 548 440 Q265 440 182 621 Q137 720 137 930 L137 1475 L313 1475 L313 922 Q313 748 357 684 Q420 593 596 593 Q743 593 865 669 Q914 700 970 747 L970 1475 L1146 1475 L1146 0 L970 0 Z " />
<glyph glyph-name="afii10042" unicode="&#x428;" horiz-adv-x="1963" d="M184 0 L184 1475 L360 1475 L360 147 L893 147 L893 1475 L1069 1475 L1069 147 L1602 147 L1602 1475 L1778 1475 L1778 0 L184 0 Z " />
<glyph glyph-name="afii10043" unicode="&#x429;" horiz-adv-x="1965" d="M184 0 L184 1475 L360 1475 L360 148 L893 148 L893 1475 L1069 1475 L1069 148 L1602 148 L1602 1475 L1778 1475 L1778 148 L1917 148 L1917 -360 L1781 -360 L1747 0 L184 0 Z " />
<glyph glyph-name="afii10044" unicode="&#x42a;" horiz-adv-x="1559" d="M477 0 L477 1328 L15 1328 L15 1475 L649 1475 L649 882 L946 882 Q1185 882 1309 796 Q1472 681 1472 441 Q1472 201 1309 86 Q1185 0 946 0 L477 0 Z M649 147 L907 147 Q1096 147 1184 208 Q1292 283 1292 443 Q1292 617 1165 690 Q1078 739 907 739 L649 739 L649 147 Z " />
<glyph glyph-name="afii10045" unicode="&#x42b;" horiz-adv-x="1728" d="M184 0 L184 1475 L356 1475 L356 882 L653 882 Q892 882 1016 796 Q1179 681 1179 441 Q1179 201 1016 86 Q892 0 653 0 L184 0 Z M356 147 L614 147 Q802 147 891 208 Q999 283 999 443 Q999 617 872 690 Q785 739 614 739 L356 739 L356 147 Z M1368 0 L1368 1475 L1544 1475 L1544 0 L1368 0 Z " />
<glyph glyph-name="afii10046" unicode="&#x42c;" horiz-adv-x="1266" d="M184 0 L184 1475 L356 1475 L356 882 L653 882 Q892 882 1016 796 Q1179 681 1179 441 Q1179 201 1016 86 Q892 0 653 0 L184 0 Z M356 147 L614 147 Q802 147 891 208 Q999 283 999 443 Q999 617 872 690 Q785 739 614 739 L356 739 L356 147 Z " />
<glyph glyph-name="afii10047" unicode="&#x42d;" horiz-adv-x="1376" d="M440 704 L440 847 L1081 847 Q1068 1017 1025 1118 Q971 1246 878 1302 Q793 1354 656 1354 Q320 1354 301 1060 L130 1060 Q135 1253 242 1364 Q376 1504 660 1504 Q995 1504 1142 1262 Q1266 1058 1266 738 Q1266 415 1136 212 Q982 -29 644 -29 Q470 -29 343 25 Q164 102 117 277 Q102 336 100 429 L271 429 Q277 290 346 219 Q443 121 645 121 Q829 121 931 221 Q1079 368 1085 704 L440 704 Z " />
<glyph glyph-name="afii10048" unicode="&#x42e;" horiz-adv-x="2153" d="M184 0 L184 1475 L360 1475 L360 850 L709 850 Q731 1055 793 1179 Q881 1353 1037 1434 Q1173 1504 1381 1504 Q1734 1504 1902 1262 Q2042 1060 2042 737 Q2042 415 1902 213 Q1734 -29 1373 -29 Q919 -29 767 356 Q711 498 704 702 L360 702 L360 0 L184 0 Z M1373 1349 Q1117 1349 999 1183 Q884 1024 884 746 Q884 545 930 421 Q996 244 1133 174 Q1230 126 1380 126 Q1630 126 1747 291 Q1862 452 1862 737 Q1862 1349 1373 1349 Z " />
<glyph glyph-name="afii10049" unicode="&#x42f;" horiz-adv-x="1282" d="M922 640 L753 640 Q638 640 580 618 Q521 595 475 519 Q449 476 440 449 L417 376 L295 0 L100 0 L256 464 Q293 572 330 624 Q359 666 411 694 Q302 733 247 786 Q144 887 144 1059 Q144 1218 221 1321 Q304 1432 475 1459 Q574 1475 713 1475 L1098 1475 L1098 0 L922 0 L922 640 Z M922 785 L922 1328 L703 1328 Q493 1328 412 1262 Q324 1189 324 1058 Q324 892 459 825 Q539 785 716 785 L922 785 Z " />
<glyph glyph-name="afii10065" unicode="&#x430;" horiz-adv-x="1262" d="M926 0 L926 160 Q795 -32 571 -32 Q351 -32 223 132 Q100 290 100 540 Q100 790 223 948 Q352 1112 570 1112 Q791 1112 916 929 L916 1080 L1087 1080 L1087 0 L926 0 Z M589 965 Q446 965 359 847 Q273 730 273 540 Q273 350 359 233 Q445 115 589 115 Q744 115 835 249 Q916 370 916 535 Q916 714 835 831 Q741 965 589 965 Z " />
<glyph glyph-name="afii10066" unicode="&#x431;" horiz-adv-x="1237" d="M302 940 Q307 945 310 948 Q375 1010 398 1028 Q421 1046 457 1061 Q544 1099 651 1099 Q870 1099 1003 940 Q1136 782 1136 540 Q1136 293 998 131 Q860 -32 628 -32 Q382 -32 246 133 Q111 296 111 575 Q111 725 132 915 Q155 1130 218 1239 Q279 1345 384 1388 Q476 1425 706 1458 Q795 1471 817 1505 Q827 1521 827 1554 L827 1562 L980 1562 L980 1534 Q980 1428 938 1385 Q907 1353 845 1336 Q815 1328 702 1312 Q502 1283 440 1249 Q351 1200 316 1031 Q312 1013 302 940 Z M631 951 Q461 951 365 821 Q285 711 285 543 Q285 363 365 249 Q459 115 632 115 Q794 115 884 248 Q963 362 963 538 Q963 714 884 822 Q791 951 631 951 Z " />
<glyph glyph-name="afii10067" unicode="&#x432;" horiz-adv-x="1176" d="M175 0 L175 1080 L640 1080 Q848 1080 933 1030 Q1040 966 1040 813 Q1040 692 967 624 Q937 597 873 569 Q967 541 1011 501 Q1083 433 1083 305 Q1083 125 950 53 Q855 0 648 0 L175 0 Z M346 625 L569 625 Q731 625 785 652 Q867 694 867 798 Q867 884 802 918 Q755 942 614 942 L346 942 L346 625 Z M346 139 L602 139 Q760 139 821 167 Q902 205 902 311 Q902 425 814 465 Q750 494 572 494 L346 494 L346 139 Z " />
<glyph glyph-name="afii10068" unicode="&#x433;" horiz-adv-x="955" d="M175 0 L175 1080 L907 1080 L907 933 L346 933 L346 0 L175 0 Z " />
<glyph glyph-name="afii10069" unicode="&#x434;" horiz-adv-x="1210" d="M1002 0 L135 0 L98 -355 L-26 -355 L-26 147 L80 147 Q202 348 265 581 Q325 798 351 1080 L1023 1080 L1023 147 L1163 147 L1163 -355 L1039 -355 L1002 0 Z M852 147 L852 933 L502 933 Q478 727 421 526 Q366 330 264 147 L852 147 Z " />
<glyph glyph-name="afii10070" unicode="&#x435;" horiz-adv-x="1183" d="M1086 496 L274 496 Q286 400 295 363.5 Q304 327 325 288 Q418 116 611 116 Q742 116 860 178 Q907 203 976 254 L1058 124 Q846 -32 613 -32 Q365 -32 227 133 Q100 284 100 530 Q100 788 234 949 Q369 1112 598 1112 Q782 1112 907 997 Q1084 836 1086 496 Z M914 629 Q894 758 851 825 Q760 970 596 970 Q334 970 277 629 L914 629 Z " />
<glyph glyph-name="afii10072" unicode="&#x436;" horiz-adv-x="1746" d="M791 0 L791 494 L760 494 Q667 494 611 447 Q583 424 505 320 L261 0 L50 0 L426 465 Q479 535 520 566 L83 1080 L283 1080 L655 627 L791 627 L791 1080 L955 1080 L955 627 L1090 627 L1463 1080 L1662 1080 L1225 566 Q1267 535 1319 465 L1695 0 L1484 0 L1240 320 Q1156 432 1123 456 Q1071 494 985 494 L955 494 L955 0 L791 0 Z " />
<glyph glyph-name="afii10073" unicode="&#x437;" horiz-adv-x="1081" d="M360 489 L360 623 L556 623 Q775 623 775 794 Q775 970 531 970 Q357 970 297 882 Q269 842 261 778 L103 778 Q116 1112 542 1112 Q735 1112 838 1041 Q948 967 948 814 Q948 650 813 579 Q885 554 920 522 Q998 454 998 310 Q998 110 858 33 Q738 -32 548 -32 Q97 -32 90 318 L248 318 Q260 223 301 182 Q377 108 547 108 Q825 108 825 305 Q825 420 749 462 Q700 489 560 489 L360 489 Z " />
<glyph glyph-name="afii10074" unicode="&#x438;" horiz-adv-x="1237" d="M175 0 L175 1080 L342 1080 L342 334 L895 950 L895 1080 L1062 1080 L1062 0 L895 0 L895 746 L342 130 L342 0 L175 0 Z " />
<glyph glyph-name="afii10075" unicode="&#x439;" horiz-adv-x="1237" d="M175 0 L175 1080 L342 1080 L342 334 L895 950 L895 1080 L1062 1080 L1062 0 L895 0 L895 746 L342 130 L342 0 L175 0 Z M323 1550 L424 1550 Q431 1471 467 1436 Q515 1388 617 1388 Q730 1388 777 1444 Q805 1478 811 1550 L913 1550 Q899 1406 839 1338 Q769 1258 618 1258 Q451 1258 381 1356 Q334 1424 323 1550 Z " />
<glyph glyph-name="afii10076" unicode="&#x43a;" horiz-adv-x="1182" d="M175 0 L175 1080 L346 1080 L346 627 L527 627 L899 1080 L1099 1080 L662 566 Q706 532 756 465 L1132 0 L916 0 L672 320 Q588 433 555 457 Q503 494 417 494 L346 494 L346 0 L175 0 Z " />
<glyph glyph-name="afii10077" unicode="&#x43b;" horiz-adv-x="1224" d="M878 0 L878 933 L517 933 Q468 541 384 295 Q321 113 218 45 Q151 0 41 0 L7 0 L7 147 L28 147 Q86 147 118 170 Q221 245 292 581 Q347 841 366 1080 L1049 1080 L1049 0 L878 0 Z " />
<glyph glyph-name="afii10078" unicode="&#x43c;" horiz-adv-x="1488" d="M99 0 L240 1080 L406 1080 L744 279 L1082 1080 L1249 1080 L1390 0 L1227 0 L1120 808 L785 0 L704 0 L369 807 L261 0 L99 0 Z " />
<glyph glyph-name="afii10079" unicode="&#x43d;" horiz-adv-x="1237" d="M175 0 L175 1080 L346 1080 L346 632 L891 632 L891 1080 L1062 1080 L1062 0 L891 0 L891 487 L346 487 L346 0 L175 0 Z " />
<glyph glyph-name="afii10080" unicode="&#x43e;" horiz-adv-x="1240" d="M620 1112 Q856 1112 1001 948 Q1139 791 1139 540 Q1139 290 1001 132 Q857 -32 621 -32 Q382 -32 238 132 Q100 290 100 547 Q100 790 238 948 Q381 1112 620 1112 Z M620 965 Q447 965 352 831 Q273 720 273 546 Q273 360 352 249 Q446 115 620 115 Q793 115 887 249 Q966 360 966 540 Q966 721 887 831 Q792 965 620 965 Z " />
<glyph glyph-name="afii10081" unicode="&#x43f;" horiz-adv-x="1210" d="M175 0 L175 1080 L1035 1080 L1035 0 L864 0 L864 933 L346 933 L346 0 L175 0 Z " />
<glyph glyph-name="afii10082" unicode="&#x440;" horiz-adv-x="1272" d="M175 -439 L175 1080 L334 1080 L334 919 Q462 1112 695 1112 Q917 1112 1046 948 Q1171 790 1171 540 Q1171 290 1046 132 Q917 -32 695 -32 Q470 -32 345 151 L345 -439 L175 -439 Z M676 965 Q521 965 428 831 Q345 711 345 545 Q345 369 428 249 Q520 115 677 115 Q823 115 911 233 Q998 350 998 540 Q998 732 911 847 Q821 965 676 965 Z " />
<glyph glyph-name="afii10083" unicode="&#x441;" horiz-adv-x="1096" d="M928 260 L1015 136 Q844 -32 594 -32 Q365 -32 237 107 Q100 255 100 525 Q100 787 226 952 Q349 1113 590 1113 Q840 1113 942 947 Q996 859 998 737 L840 737 Q820 965 592 965 Q431 965 349 839 Q273 722 273 533 Q273 325 374 213 Q461 116 607 116 Q781 116 928 260 Z " />
<glyph glyph-name="afii10084" unicode="&#x442;" horiz-adv-x="1057" d="M443 0 L443 935 L50 935 L50 1080 L1007 1080 L1007 935 L614 935 L614 0 L443 0 Z " />
<glyph glyph-name="afii10085" unicode="&#x443;" horiz-adv-x="1016" d="M425 41 L24 1080 L203 1080 L508 246 L812 1080 L992 1080 L541 -86 Q480 -241 450 -290 Q379 -406 265 -428 Q215 -438 125 -439 L125 -291 Q229 -290 268 -264 Q322 -228 365 -115 L425 41 Z " />
<glyph glyph-name="afii10086" unicode="&#x444;" horiz-adv-x="1590" d="M719 -439 L719 104 Q681 56 645 27 Q574 -32 470 -32 Q289 -32 200 106 Q100 262 100 539 Q100 813 199 971 Q288 1113 471 1113 Q574 1113 646 1053 Q682 1024 719 976 L719 1516 L870 1516 L870 975 Q907 1024 943 1053 Q1015 1113 1119 1113 Q1300 1113 1389 971 Q1488 813 1488 539 Q1488 262 1388 106 Q1299 -32 1118 -32 Q1017 -32 947 23 Q909 53 870 105 L870 -439 L719 -439 Z M719 454 L719 625 Q719 720 706 769 Q682 861 625 921 Q570 977 491 977 Q371 977 318 856 Q264 733 264 541 Q264 348 318 224 Q371 104 491 104 Q611 104 678 236 Q719 317 719 454 Z M870 625 L870 454 Q870 361 882 313 Q906 221 964 160 Q1018 104 1097 104 Q1217 104 1270 224 Q1324 348 1324 540 Q1324 733 1270 856 Q1217 977 1097 977 Q979 977 911 846 Q882 789 874 726 Q870 693 870 625 Z " />
<glyph glyph-name="afii10087" unicode="&#x445;" horiz-adv-x="1009" d="M401 577 L49 1080 L241 1080 L515 692 L775 1080 L957 1080 L593 580 L1000 0 L807 0 L480 464 L185 0 L2 0 L401 577 Z " />
<glyph glyph-name="afii10088" unicode="&#x446;" horiz-adv-x="1236" d="M175 0 L175 1080 L346 1080 L346 147 L877 147 L877 1080 L1048 1080 L1048 147 L1188 147 L1188 -355 L1064 -355 L1027 0 L175 0 Z " />
<glyph glyph-name="afii10089" unicode="&#x447;" horiz-adv-x="1168" d="M822 0 L822 459 Q681 361 484 361 Q231 361 153 526 Q115 605 115 801 L115 1080 L286 1080 L286 758 Q286 628 332 572 Q385 508 524 508 Q698 508 822 622 L822 1080 L993 1080 L993 0 L822 0 Z " />
<glyph glyph-name="afii10090" unicode="&#x448;" horiz-adv-x="1782" d="M175 0 L175 1080 L346 1080 L346 147 L806 147 L806 1080 L977 1080 L977 147 L1436 147 L1436 1080 L1607 1080 L1607 0 L175 0 Z " />
<glyph glyph-name="afii10091" unicode="&#x449;" horiz-adv-x="1818" d="M175 0 L175 1080 L346 1080 L346 147 L806 147 L806 1080 L977 1080 L977 147 L1436 147 L1436 1080 L1607 1080 L1607 147 L1770 147 L1770 -355 L1647 -355 L1610 0 L175 0 Z " />
<glyph glyph-name="afii10092" unicode="&#x44a;" horiz-adv-x="1352" d="M394 0 L394 933 L15 933 L15 1080 L565 1080 L565 685 L842 685 Q1080 685 1172 617 Q1284 534 1284 343 Q1284 136 1151 56 Q1057 0 842 0 L394 0 Z M565 140 L814 140 Q972 140 1032 172 Q1111 214 1111 345 Q1111 487 1019 524 Q957 549 814 549 L565 549 L565 140 Z " />
<glyph glyph-name="afii10093" unicode="&#x44b;" horiz-adv-x="1620" d="M175 0 L175 1080 L346 1080 L346 685 L623 685 Q861 685 953 617 Q1065 533 1065 344 Q1065 135 932 56 Q838 0 623 0 L175 0 Z M346 140 L595 140 Q753 140 813 172 Q892 214 892 345 Q892 487 800 524 Q738 549 595 549 L346 549 L346 140 Z M1274 0 L1274 1080 L1445 1080 L1445 0 L1274 0 Z " />
<glyph glyph-name="afii10094" unicode="&#x44c;" horiz-adv-x="1133" d="M175 0 L175 1080 L346 1080 L346 685 L623 685 Q861 685 953 617 Q1065 533 1065 344 Q1065 135 932 56 Q838 0 623 0 L175 0 Z M346 140 L595 140 Q753 140 813 172 Q892 214 892 345 Q892 487 800 524 Q738 549 595 549 L346 549 L346 140 Z " />
<glyph glyph-name="afii10095" unicode="&#x44d;" horiz-adv-x="1110" d="M351 489 L351 623 L831 623 Q817 736 786 803 Q708 971 522 971 Q369 971 305 884 Q268 833 260 778 L103 778 Q112 906 187 992 Q294 1113 522 1113 Q757 1113 879 959 Q1009 794 1009 532 Q1009 264 876 107 Q760 -32 528 -32 Q94 -32 89 318 L247 318 Q259 222 303 180 Q378 110 520 110 Q715 110 791 277 Q822 347 834 489 L351 489 Z " />
<glyph glyph-name="afii10096" unicode="&#x44e;" horiz-adv-x="1772" d="M175 0 L175 1080 L346 1080 L346 629 L639 629 Q658 780 728 890 Q796 997 909 1056 Q1018 1112 1153 1112 Q1391 1112 1535 948 Q1673 791 1673 540 Q1673 290 1535 132 Q1391 -32 1153 -32 Q967 -32 835 72 Q660 210 636 491 L346 491 L346 0 L175 0 Z M1154 965 Q981 965 886 831 Q807 721 807 546 Q807 360 886 249 Q980 115 1154 115 Q1326 115 1421 249 Q1500 360 1500 540 Q1500 721 1421 831 Q1325 965 1154 965 Z " />
<glyph glyph-name="afii10097" unicode="&#x44f;" horiz-adv-x="1196" d="M850 447 L595 447 Q552 447 530 438.5 Q508 430 488 405 Q463 375 399 250 L272 0 L71 0 L268 344 Q312 421 327 440 Q338 454 366 478 Q134 546 134 770 Q134 944 259 1025 Q344 1080 530 1080 L1020 1080 L1020 0 L850 0 L850 447 Z M850 581 L850 941 L561 941 Q413 941 361 899 Q307 855 307 766 Q307 665 373 619 Q427 581 545 581 L850 581 Z " />
<glyph glyph-name="uni0450" unicode="&#x450;" horiz-adv-x="1183" d="M1086 496 L274 496 Q286 400 295 363.5 Q304 327 325 288 Q418 116 611 116 Q742 116 860 178 Q907 203 976 254 L1058 124 Q846 -32 613 -32 Q365 -32 227 133 Q100 284 100 530 Q100 788 234 949 Q369 1112 598 1112 Q782 1112 907 997 Q1084 836 1086 496 Z M914 629 Q894 758 851 825 Q760 970 596 970 Q334 970 277 629 L914 629 Z M604 1221 L337 1549 L529 1549 L726 1221 L604 1221 Z " />
<glyph glyph-name="afii10071" unicode="&#x451;" horiz-adv-x="1183" d="M1086 496 L274 496 Q286 400 295 363.5 Q304 327 325 288 Q418 116 611 116 Q742 116 860 178 Q907 203 976 254 L1058 124 Q846 -32 613 -32 Q365 -32 227 133 Q100 284 100 530 Q100 788 234 949 Q369 1112 598 1112 Q782 1112 907 997 Q1084 836 1086 496 Z M914 629 Q894 758 851 825 Q760 970 596 970 Q334 970 277 629 L914 629 Z M413 1485 Q461 1485 493 1450 Q521 1420 521 1379 Q521 1331 485 1300 Q453 1272 412 1272 Q363 1272 330 1307 Q302 1337 302 1379 Q302 1425 338 1458 Q369 1485 413 1485 Z M769 1485 Q816 1485 848 1450 Q876 1420 876 1379 Q876 1331 840 1300 Q808 1272 767 1272 Q718 1272 685 1307 Q657 1337 657 1379 Q657 1425 693 1458 Q724 1485 769 1485 Z " />
<glyph glyph-name="afii10099" unicode="&#x452;" horiz-adv-x="1247" d="M181 0 L181 1233 L32 1233 L32 1344 L181 1344 L181 1516 L351 1516 L351 1344 L698 1344 L698 1233 L351 1233 L351 901 Q442 990 500 1029 Q623 1113 758 1113 Q954 1113 1028 969 Q1065 897 1076 785 Q1081 732 1081 627 L1081 30 Q1081 -142 1053 -226 Q1008 -365 873 -414 Q819 -434 731 -439 L731 -291 Q794 -284 823 -268 Q880 -236 899 -150 Q911 -96 911 28 L911 636 Q911 779 888 846 Q850 956 716 956 Q607 956 489 861 Q447 828 351 722 L351 0 L181 0 Z " />
<glyph glyph-name="afii10100" unicode="&#x453;" horiz-adv-x="955" d="M175 0 L175 1080 L907 1080 L907 933 L346 933 L346 0 L175 0 Z M441 1234 L646 1574 L840 1574 L564 1234 L441 1234 Z " />
<glyph glyph-name="afii10101" unicode="&#x454;" horiz-adv-x="1110" d="M759 489 L276 489 Q291 323 334 248 Q412 110 590 110 Q748 110 819 193 Q852 232 863 318 L1021 318 Q1016 -32 581 -32 Q350 -32 234 107 Q101 264 101 532 Q101 794 231 959 Q353 1113 589 1113 Q836 1113 941 969 Q999 890 1007 778 L849 778 Q840 844 793 899 Q731 971 587 971 Q390 971 315 782 Q294 730 279 623 L759 623 L759 489 Z " />
<glyph glyph-name="afii10102" unicode="&#x455;" horiz-adv-x="1042" d="M73 332 L231 332 Q242 234 282 189 Q357 108 525 108 Q793 108 793 295 Q793 387 727 427 Q688 451 625 463 Q593 470 498 487 Q322 519 243 567 Q126 638 126 792 Q126 947 236 1035 Q333 1112 497 1112 Q631 1112 729 1062 Q883 983 886 782 L728 782 Q718 867 687 903 Q627 972 493 972 Q400 972 348 931 Q293 888 293 807 Q293 724 358 689 Q407 663 552 636 Q685 611 741 592 Q866 548 915 467 Q956 399 956 305 Q956 145 845 57 Q731 -32 527 -32 Q80 -32 73 332 Z " />
<glyph glyph-name="afii10103" unicode="&#x456;" horiz-adv-x="537" d="M184 0 L184 1080 L354 1080 L354 0 L184 0 Z M271 1508 Q321 1508 355 1471 Q385 1439 385 1395 Q385 1343 347 1310 Q312 1281 269 1281 Q218 1281 182 1319 Q152 1351 152 1395 Q152 1444 191 1479 Q223 1508 271 1508 Z " />
<glyph glyph-name="afii10104" unicode="&#x457;" horiz-adv-x="551" d="M190 0 L190 1080 L360 1080 L360 0 L190 0 Z M95 1502 Q143 1502 175 1466 Q204 1436 204 1394 Q204 1346 167 1314 Q135 1286 93 1286 Q43 1286 10 1322 Q-19 1352 -19 1395 Q-19 1442 18 1475 Q49 1502 95 1502 Z M461 1502 Q509 1502 542 1466 Q570 1436 570 1394 Q570 1346 533 1314 Q501 1286 459 1286 Q409 1286 376 1322 Q347 1352 347 1395 Q347 1442 384 1475 Q415 1502 461 1502 Z " />
<glyph glyph-name="afii10105" unicode="&#x458;" horiz-adv-x="554" d="M201 1080 L371 1080 L371 23 Q371 -147 343 -229 Q278 -425 21 -439 L21 -291 Q84 -284 114 -268 Q170 -237 189 -153 Q201 -100 201 21 L201 1080 Z M288 1508 Q338 1508 372 1471 Q402 1438 402 1395 Q402 1344 364 1310 Q330 1281 286 1281 Q234 1281 199 1319 Q169 1351 169 1396 Q169 1445 208 1479 Q240 1508 288 1508 Z " />
<glyph glyph-name="afii10106" unicode="&#x459;" horiz-adv-x="1836" d="M878 0 L878 933 L517 933 Q468 541 384 295 Q320 112 218 44 Q150 0 41 0 L7 0 L7 147 L28 147 Q86 147 118 170 Q222 245 292 581 Q347 841 366 1080 L1049 1080 L1049 685 L1326 685 Q1565 685 1656 617 Q1768 533 1768 344 Q1768 136 1635 56 Q1541 0 1326 0 L878 0 Z M1049 140 L1298 140 Q1456 140 1516 172 Q1595 214 1595 345 Q1595 487 1503 524 Q1441 549 1298 549 L1049 549 L1049 140 Z " />
<glyph glyph-name="afii10107" unicode="&#x45a;" horiz-adv-x="1841" d="M175 0 L175 1080 L346 1080 L346 648 L883 648 L883 1080 L1054 1080 L1054 656 L1330 656 Q1569 656 1661 593 Q1773 516 1773 338 Q1773 135 1640 56 Q1546 0 1330 0 L883 0 L883 510 L346 510 L346 0 L175 0 Z M1054 140 L1303 140 Q1460 140 1521 171 Q1600 212 1600 339 Q1600 467 1508 499 Q1444 521 1303 521 L1054 521 L1054 140 Z " />
<glyph glyph-name="afii10108" unicode="&#x45b;" horiz-adv-x="1247" d="M181 0 L181 1233 L32 1233 L32 1344 L181 1344 L181 1516 L351 1516 L351 1344 L698 1344 L698 1233 L351 1233 L351 901 Q445 992 500 1029 Q623 1113 758 1113 Q954 1113 1028 969 Q1065 897 1076 785 Q1081 732 1081 627 L1081 0 L911 0 L911 636 Q911 779 888 846 Q850 956 716 956 Q607 956 489 861 Q447 828 351 722 L351 0 L181 0 Z " />
<glyph glyph-name="afii10109" unicode="&#x45c;" horiz-adv-x="1182" d="M175 0 L175 1080 L346 1080 L346 627 L527 627 L899 1080 L1099 1080 L662 566 Q706 532 756 465 L1132 0 L916 0 L672 320 Q588 433 555 457 Q503 494 417 494 L346 494 L346 0 L175 0 Z M519 1234 L723 1574 L917 1574 L641 1234 L519 1234 Z " />
<glyph glyph-name="uni045D" unicode="&#x45d;" horiz-adv-x="1237" d="M175 0 L175 1080 L342 1080 L342 334 L895 950 L895 1080 L1062 1080 L1062 0 L895 0 L895 746 L342 130 L342 0 L175 0 Z M627 1234 L351 1574 L545 1574 L750 1234 L627 1234 Z " />
<glyph glyph-name="afii10110" unicode="&#x45e;" horiz-adv-x="1016" d="M425 41 L24 1080 L203 1080 L508 246 L812 1080 L992 1080 L541 -86 Q480 -241 450 -290 Q379 -406 265 -428 Q215 -438 125 -439 L125 -291 Q229 -290 268 -264 Q322 -228 365 -115 L425 41 Z M203 1550 L304 1550 Q311 1471 347 1436 Q396 1388 498 1388 Q611 1388 657 1444 Q685 1477 691 1550 L794 1550 Q779 1405 720 1338 Q649 1258 499 1258 Q332 1258 262 1356 Q214 1424 203 1550 Z " />
<glyph glyph-name="afii10193" unicode="&#x45f;" horiz-adv-x="1223" d="M175 0 L175 1080 L346 1080 L346 147 L877 147 L877 1080 L1048 1080 L1048 0 L703 0 L669 -355 L554 -355 L521 0 L175 0 Z " />
<glyph glyph-name="uni0462" unicode="&#x462;" horiz-adv-x="1543" d="M457 0 L457 1328 L51 1328 L51 1475 L1114 1475 L1114 1328 L633 1328 L633 882 L930 882 Q1169 882 1292 796 Q1456 681 1456 441 Q1456 201 1292 86 Q1169 0 930 0 L457 0 Z M633 147 L891 147 Q1079 147 1168 208 Q1276 283 1276 443 Q1276 617 1149 690 Q1062 739 891 739 L633 739 L633 147 Z " />
<glyph glyph-name="uni0463" unicode="&#x463;" horiz-adv-x="1277" d="M181 0 L181 1233 L32 1233 L32 1344 L181 1344 L181 1516 L351 1516 L351 1344 L698 1344 L698 1233 L351 1233 L351 929 Q397 992 437 1025 Q543 1113 701 1113 Q923 1113 1052 949 Q1177 791 1177 540 Q1177 290 1052 132 Q923 -32 700 -32 Q536 -32 426 62 Q384 97 339 163 L331 0 L181 0 Z M682 966 Q527 966 434 832 Q351 712 351 546 Q351 369 434 249 Q526 115 683 115 Q829 115 917 233 Q1004 351 1004 541 Q1004 733 917 848 Q827 966 682 966 Z " />
<glyph glyph-name="afii10050" unicode="&#x490;" horiz-adv-x="1101" d="M184 0 L184 1475 L864 1475 L901 1835 L1046 1835 L1046 1328 L360 1328 L360 0 L184 0 Z " />
<glyph glyph-name="afii10098" unicode="&#x491;" horiz-adv-x="955" d="M175 0 L175 1080 L739 1080 L773 1428 L907 1428 L907 933 L346 933 L346 0 L175 0 Z " />
<glyph glyph-name="uni0492" unicode="&#x492;" horiz-adv-x="1170" d="M253 0 L253 712 L36 712 L36 846 L253 846 L253 1475 L1114 1475 L1114 1328 L429 1328 L429 846 L812 846 L812 712 L429 712 L429 0 L253 0 Z " />
<glyph glyph-name="uni0493" unicode="&#x493;" horiz-adv-x="990" d="M210 0 L210 440 L30 440 L30 561 L210 561 L210 1080 L942 1080 L942 933 L381 933 L381 561 L625 561 L625 440 L381 440 L381 0 L210 0 Z " />
<glyph glyph-name="uni0496" unicode="&#x496;" horiz-adv-x="1873" d="M850 0 L850 704 L761 704 Q632 704 565 628 Q517 573 455 437 L256 0 L41 0 L306 531 Q365 650 406 703 Q443 752 504 790 L33 1475 L228 1475 L654 847 L850 847 L850 1475 L1020 1475 L1020 847 L1216 847 L1642 1475 L1836 1475 L1366 790 Q1432 749 1476 687 Q1512 635 1564 531 L1754 148 L1867 148 L1867 -360 L1732 -360 L1699 0 L1614 0 L1415 437 Q1346 588 1292 642 Q1229 704 1109 704 L1020 704 L1020 0 L850 0 Z " />
<glyph glyph-name="uni0497" unicode="&#x497;" horiz-adv-x="1747" d="M791 0 L791 494 L760 494 Q666 494 611 447 Q582 423 505 320 L261 0 L50 0 L426 465 Q479 535 520 566 L83 1080 L283 1080 L655 627 L791 627 L791 1080 L955 1080 L955 627 L1090 627 L1463 1080 L1662 1080 L1225 566 Q1266 535 1319 465 L1590 147 L1728 147 L1728 -355 L1604 -355 L1569 0 L1484 0 L1240 320 Q1157 431 1123 456 Q1071 494 985 494 L955 494 L955 0 L791 0 Z " />
<glyph glyph-name="uni0498" unicode="&#x498;" horiz-adv-x="1309" d="M737 -26 L697 -94 Q786 -101 824 -118 Q926 -162 926 -276 Q926 -389 836 -439 Q769 -477 665 -477 Q527 -477 405 -437 L443 -318 Q563 -357 657 -357 Q782 -357 782 -277 Q782 -200 648 -200 Q621 -200 574 -204 L557 -112 L608 -27 Q393 -17 271 60 Q141 144 110 311 Q101 355 100 429 L271 429 Q277 289 344 220 Q440 121 644 121 Q1022 121 1022 422 Q1022 595 902 662 Q822 707 658 707 L422 707 L422 850 L613 850 Q781 850 861 907 Q967 980 967 1111 Q967 1227 888 1288 Q804 1354 640 1354 Q317 1354 301 1060 L130 1060 Q140 1504 653 1504 Q889 1504 1017 1411 Q1146 1317 1146 1126 Q1146 993 1083 904 Q1044 849 967 803 Q1202 727 1202 438 Q1202 10 737 -26 Z " />
<glyph glyph-name="uni0499" unicode="&#x499;" horiz-adv-x="1081" d="M617 -30 L580 -98 Q669 -105 705 -121 Q805 -166 805 -282 Q805 -398 716 -450 Q650 -488 547 -488 Q410 -488 290 -448 L328 -328 Q445 -367 541 -367 Q661 -367 661 -284 Q661 -204 532 -204 Q509 -204 456 -208 L440 -116 L488 -30 Q317 -20 214 50 Q94 131 90 318 L248 318 Q260 223 301 182 Q377 108 547 108 Q825 108 825 305 Q825 420 749 462 Q700 489 560 489 L360 489 L360 623 L556 623 Q775 623 775 794 Q775 970 531 970 Q357 970 297 882 Q269 842 261 778 L103 778 Q116 1112 542 1112 Q735 1112 838 1041 Q948 967 948 814 Q948 650 813 579 Q885 554 920 522 Q998 453 998 309 Q998 150 907 68 Q817 -14 617 -30 Z " />
<glyph glyph-name="uni049A" unicode="&#x49a;" horiz-adv-x="1275" d="M184 0 L184 1475 L360 1475 L360 847 L617 847 L1043 1475 L1237 1475 L767 790 Q834 748 877 687 Q913 635 965 531 L1155 148 L1286 148 L1286 -360 L1150 -360 L1118 0 L1011 0 L812 437 Q742 589 689 642 Q626 704 505 704 L360 704 L360 0 L184 0 Z " />
<glyph glyph-name="uni049B" unicode="&#x49b;" horiz-adv-x="1183" d="M175 0 L175 1080 L346 1080 L346 627 L527 627 L899 1080 L1099 1080 L662 566 Q706 532 756 465 L1027 147 L1160 147 L1160 -355 L1037 -355 L999 0 L916 0 L672 320 Q588 432 555 456 Q503 494 417 494 L346 494 L346 0 L175 0 Z " />
<glyph glyph-name="uni049C" unicode="&#x49c;" horiz-adv-x="1276" d="M184 0 L184 1475 L360 1475 L360 847 L520 847 L520 1086 L640 1086 L640 884 L1043 1475 L1237 1475 L766 790 Q834 748 876 687 Q912 636 964 531 L1229 0 L1011 0 L815 428 Q758 551 719 602 Q686 645 640 667 L640 428 L520 428 L520 704 L360 704 L360 0 L184 0 Z " />
<glyph glyph-name="uni049D" unicode="&#x49d;" horiz-adv-x="1182" d="M175 0 L175 1080 L346 1080 L346 627 L446 627 L446 822 L552 822 L552 647 L900 1080 L1100 1080 L662 566 Q706 532 756 465 L1132 0 L920 0 L676 320 Q615 401 595 420 Q588 428 552 458 L552 267 L446 267 L446 494 L346 494 L346 0 L175 0 Z " />
<glyph glyph-name="uni04A2" unicode="&#x4a2;" horiz-adv-x="1432" d="M184 0 L184 1475 L360 1475 L360 850 L1068 850 L1068 1475 L1244 1475 L1244 148 L1367 148 L1367 -360 L1230 -360 L1198 0 L1068 0 L1068 702 L360 702 L360 0 L184 0 Z " />
<glyph glyph-name="uni04A3" unicode="&#x4a3;" horiz-adv-x="1243" d="M175 0 L175 1080 L346 1080 L346 629 L891 629 L891 1080 L1062 1080 L1062 147 L1176 147 L1176 -355 L1052 -355 L1015 0 L891 0 L891 491 L346 491 L346 0 L175 0 Z " />
<glyph glyph-name="uni04AA" unicode="&#x4aa;" horiz-adv-x="1402" d="M1188 342 L1302 227 Q1197 89 1062 29 Q942 -23 780 -28 L744 -94 Q828 -101 865 -118 Q962 -162 962 -276 Q962 -388 876 -439 Q812 -477 709 -477 Q577 -477 459 -437 L496 -318 Q612 -357 704 -357 Q819 -357 819 -277 Q819 -200 693 -200 Q668 -200 621 -204 L604 -112 L655 -22 Q462 -3 334 109 Q216 213 157 397 Q110 541 110 728 Q110 1092 284 1303 Q448 1503 753 1503 Q1057 1503 1196 1315 Q1274 1210 1278 1046 L1107 1046 Q1101 1164 1037 1239 Q942 1350 754 1350 Q517 1350 399 1170 Q290 1002 290 728 Q290 447 416 281 Q533 126 765 126 Q931 126 1056 211 Q1107 246 1188 342 Z " />
<glyph glyph-name="uni04AB" unicode="&#x4ab;" horiz-adv-x="1096" d="M626 -32 L590 -97 Q678 -104 715 -121 Q814 -166 814 -282 Q814 -398 726 -449 Q660 -488 557 -488 Q422 -488 300 -448 L338 -328 Q457 -367 550 -367 Q670 -367 670 -284 Q670 -205 542 -205 Q526 -205 467 -208 L450 -115 L501 -25 Q390 -10 305 48 Q100 188 100 524 Q100 787 226 952 Q349 1113 590 1113 Q840 1113 942 947 Q996 859 998 737 L840 737 Q820 965 592 965 Q431 965 349 839 Q273 721 273 532 Q273 324 374 212 Q461 115 607 115 Q781 115 928 260 L1015 136 Q925 48 819 7 Q743 -23 626 -32 Z " />
<glyph glyph-name="uni04AE" unicode="&#x4ae;" horiz-adv-x="1130" d="M477 0 L477 577 L-25 1475 L167 1475 L565 751 L962 1475 L1154 1475 L653 577 L653 0 L477 0 Z " />
<glyph glyph-name="uni04AF" unicode="&#x4af;" horiz-adv-x="1016" d="M423 -3 L24 1080 L204 1080 L508 199 L812 1080 L992 1080 L593 -3 L593 -439 L423 -439 L423 -3 Z " />
<glyph glyph-name="uni04B0" unicode="&#x4b0;" horiz-adv-x="1126" d="M475 0 L475 534 L238 534 L238 671 L422 671 L-25 1475 L167 1475 L563 750 L958 1475 L1151 1475 L703 671 L888 671 L888 534 L651 534 L651 0 L475 0 Z " />
<glyph glyph-name="uni04B1" unicode="&#x4b1;" horiz-adv-x="1016" d="M381 111 L24 1080 L203 1080 L508 199 L813 1080 L993 1080 L635 111 L819 111 L819 0 L593 0 L593 -439 L423 -439 L423 0 L197 0 L197 111 L381 111 Z " />
<glyph glyph-name="uni04B2" unicode="&#x4b2;" horiz-adv-x="1210" d="M501 769 L56 1475 L258 1475 L624 896 L955 1475 L1151 1475 L712 755 L1095 148 L1234 148 L1234 -360 L1099 -360 L1067 0 L985 0 L588 628 L215 0 L19 0 L501 769 Z " />
<glyph glyph-name="uni04B3" unicode="&#x4b3;" horiz-adv-x="1011" d="M401 577 L49 1080 L241 1080 L515 692 L775 1080 L957 1080 L593 579 L898 147 L1061 147 L1061 -355 L937 -355 L900 0 L807 0 L480 463 L185 0 L2 0 L401 577 Z " />
<glyph glyph-name="uni04B6" unicode="&#x4b6;" horiz-adv-x="1333" d="M970 0 L970 580 Q952 569 944 564 Q842 499 784 479 Q675 440 548 440 Q265 440 182 622 Q137 721 137 930 L137 1475 L313 1475 L313 922 Q313 747 357 684 Q420 593 596 593 Q743 593 865 670 Q914 700 970 747 L970 1475 L1146 1475 L1146 148 L1268 148 L1268 -360 L1133 -360 L1101 0 L970 0 Z " />
<glyph glyph-name="uni04B7" unicode="&#x4b7;" horiz-adv-x="1174" d="M822 0 L822 459 Q680 360 484 360 Q231 360 153 525 Q115 604 115 801 L115 1080 L286 1080 L286 758 Q286 628 332 571 Q385 507 524 507 Q697 507 822 622 L822 1080 L993 1080 L993 147 L1108 147 L1108 -355 L983 -355 L946 0 L822 0 Z " />
<glyph glyph-name="uni04B8" unicode="&#x4b8;" horiz-adv-x="1330" d="M970 0 L970 580 Q952 569 944 563 Q831 492 772 474 Q741 465 701 457 L701 220 L581 220 L581 440 Q551 439 540 439 Q404 439 302 493 Q178 558 150 737 Q137 817 137 930 L137 1475 L313 1475 L313 922 Q313 806 330 743 Q367 602 581 593 L581 858 L701 858 L701 604 Q832 630 970 747 L970 1475 L1146 1475 L1146 0 L970 0 Z " />
<glyph glyph-name="uni04B9" unicode="&#x4b9;" horiz-adv-x="1168" d="M822 0 L822 459 Q722 389 607 371 L607 172 L501 172 L501 361 Q486 361 479 361 Q231 361 153 526 Q115 605 115 801 L115 1080 L286 1080 L286 758 Q286 604 353 551 Q399 516 501 510 L501 717 L607 717 L607 515 Q728 535 822 622 L822 1080 L993 1080 L993 0 L822 0 Z " />
<glyph glyph-name="uni04BA" unicode="&#x4ba;" horiz-adv-x="1251" d="M183 0 L183 1475 L355 1475 L355 829 Q444 897 508 931 Q635 997 774 997 Q986 997 1072 867 Q1114 805 1125 702 Q1131 654 1131 561 L1131 0 L961 0 L961 569 Q961 696 934 749 Q887 841 732 841 Q618 841 497 767 Q442 734 355 659 L355 0 L183 0 Z " />
<glyph glyph-name="uni04BB" unicode="&#x4bb;" horiz-adv-x="1241" d="M175 0 L175 1579 L345 1579 L345 901 Q430 985 494 1029 Q617 1113 752 1113 Q947 1113 1022 969 Q1059 897 1070 785 Q1075 732 1075 627 L1075 0 L905 0 L905 636 Q905 779 882 846 Q844 956 711 956 Q600 956 483 861 Q431 819 345 722 L345 0 L175 0 Z " />
<glyph glyph-name="uni04C0" unicode="&#x4c0;" horiz-adv-x="545" d="M184 0 L184 1475 L360 1475 L360 0 L184 0 Z " />
<glyph glyph-name="uni04C1" unicode="&#x4c1;" horiz-adv-x="1875" d="M850 0 L850 704 L761 704 Q631 704 565 628 Q517 573 455 436 L256 0 L41 0 L306 531 Q365 650 406 703 Q443 752 504 790 L33 1475 L228 1475 L654 847 L850 847 L850 1475 L1020 1475 L1020 847 L1216 847 L1642 1475 L1837 1475 L1366 790 Q1433 749 1476 687 Q1512 635 1564 531 L1829 0 L1614 0 L1415 436 Q1346 588 1292 642 Q1230 704 1109 704 L1020 704 L1020 0 L850 0 Z M639 1900 L739 1900 Q746 1825 780 1791 Q826 1745 925 1745 Q1032 1745 1076 1799 Q1102 1831 1108 1900 L1210 1900 Q1197 1762 1140 1697 Q1072 1617 925 1617 Q762 1617 694 1714 Q649 1780 639 1900 Z " />
<glyph glyph-name="uni04C2" unicode="&#x4c2;" horiz-adv-x="1746" d="M791 0 L791 494 L760 494 Q667 494 611 447 Q583 424 505 320 L261 0 L50 0 L426 465 Q479 535 520 566 L83 1080 L283 1080 L655 627 L791 627 L791 1080 L955 1080 L955 627 L1090 627 L1463 1080 L1662 1080 L1225 566 Q1267 535 1319 465 L1695 0 L1484 0 L1240 320 Q1156 432 1123 456 Q1071 494 985 494 L955 494 L955 0 L791 0 Z M576 1550 L677 1550 Q684 1471 720 1436 Q769 1388 871 1388 Q984 1388 1030 1444 Q1058 1477 1064 1550 L1167 1550 Q1153 1406 1093 1338 Q1022 1258 872 1258 Q705 1258 635 1356 Q587 1425 576 1550 Z " />
<glyph glyph-name="uni04CF" unicode="&#x4cf;" horiz-adv-x="545" d="M184 0 L184 1475 L360 1475 L360 0 L184 0 Z " />
<glyph glyph-name="uni04D4" unicode="&#x4d4;" horiz-adv-x="1989" d="M995 480 L429 480 L119 0 L-73 0 L894 1475 L1859 1475 L1859 1327 L1171 1327 L1171 840 L1738 840 L1738 693 L1171 693 L1171 148 L1875 148 L1875 0 L995 0 L995 480 Z M995 623 L995 1356 L520 623 L995 623 Z " />
<glyph glyph-name="uni04D5" unicode="&#x4d5;" horiz-adv-x="1924" d="M842 643 L842 709 Q842 845 799 900 Q743 971 574 971 Q447 971 396 913 Q364 878 346 796 L187 796 Q204 928 265 1001 Q357 1112 577 1112 Q770 1112 864 1046 Q929 1001 960 911 Q1089 1112 1340 1112 Q1528 1112 1656 992 Q1827 831 1830 496 L1009 496 Q1021 361 1061 288 Q1155 115 1350 115 Q1486 115 1607 179 Q1652 203 1721 254 L1802 124 Q1593 -33 1359 -33 Q1085 -33 942 199 Q903 130 830 73 Q693 -32 478 -32 Q92 -32 92 304 Q92 520 244 603 Q339 655 558 655 Q614 655 780 646 L842 643 Z M845 508 Q725 522 565 522 Q396 522 338 483 Q263 433 263 312 Q263 210 316 162 Q373 112 502 112 Q715 112 802 232 Q845 292 845 400 L845 508 Z M1655 630 Q1634 759 1592 825 Q1501 969 1334 969 Q1150 969 1062 798 Q1028 733 1012 630 L1655 630 Z " />
<glyph glyph-name="uni04D8" unicode="&#x4d8;" horiz-adv-x="1560" d="M110 842 L1264 842 Q1253 1000 1199 1109 Q1133 1242 1019 1300 Q924 1349 782 1349 Q589 1349 475 1259 Q426 1220 377 1142 L228 1228 Q296 1332 367 1385 Q523 1504 784 1504 Q1143 1504 1310 1262 Q1450 1059 1450 737 Q1450 415 1310 212 Q1143 -29 788 -29 Q498 -29 337 116 Q158 276 122 575 Q110 672 110 842 Z M294 699 Q301 563 313 500.5 Q325 438 355 376 Q423 235 541 175 Q636 126 786 126 Q1114 126 1223 421 Q1265 536 1268 699 L294 699 Z " />
<glyph glyph-name="afii10846" unicode="&#x4d9;" horiz-adv-x="1226" d="M99 623 L946 623 Q926 748 880 818 Q784 965 603 965 Q418 965 231 830 L143 955 Q358 1112 605 1112 Q843 1112 986 948 Q1125 788 1125 540 Q1125 292 986 133 Q843 -32 612 -32 Q381 -32 237 133 Q98 292 98 550 Q98 578 99 623 Z M275 495 Q291 354 329 287 Q426 115 611 115 Q734 115 820 192 Q911 273 938 409 Q944 444 949 495 L275 495 Z " />
<glyph glyph-name="uni04E2" unicode="&#x4e2;" horiz-adv-x="1429" d="M184 0 L184 1475 L360 1475 L360 383 L1068 1327 L1068 1475 L1244 1475 L1244 0 L1068 0 L1068 1089 L360 148 L360 0 L184 0 Z M441 1685 L441 1822 L969 1822 L969 1685 L441 1685 Z " />
<glyph glyph-name="uni04E3" unicode="&#x4e3;" horiz-adv-x="1237" d="M175 0 L175 1080 L342 1080 L342 334 L895 950 L895 1080 L1062 1080 L1062 0 L895 0 L895 746 L342 130 L342 0 L175 0 Z M346 1329 L346 1466 L874 1466 L874 1329 L346 1329 Z " />
<glyph glyph-name="uni04E8" unicode="&#x4e8;" horiz-adv-x="1560" d="M780 1504 Q1141 1504 1309 1262 Q1449 1060 1449 737 Q1449 415 1309 212 Q1142 -29 782 -29 Q417 -29 250 212 Q110 415 110 747 Q110 1063 250 1262 Q420 1504 780 1504 Z M295 842 L1264 842 Q1221 1349 779 1349 Q469 1349 354 1097 Q309 999 295 842 Z M1267 699 L292 699 Q296 502 358 372 Q424 233 540 174 Q636 126 780 126 Q980 126 1093 225 Q1227 342 1257 572 Q1264 626 1267 699 Z " />
<glyph glyph-name="uni04E9" unicode="&#x4e9;" horiz-adv-x="1240" d="M620 1112 Q856 1112 1001 948 Q1139 792 1139 540 Q1139 290 1001 133 Q857 -32 621 -32 Q382 -32 238 133 Q100 290 100 548 Q100 790 238 948 Q381 1112 620 1112 Z M963 495 L275 495 Q294 352 327 290 Q421 115 619 115 Q747 115 836 193 Q926 272 952 412 Q958 443 963 495 Z M278 623 L961 623 Q940 741 910 794 Q815 965 619 965 Q493 965 405 888 Q324 818 295 706 Q286 673 278 623 Z " />
<glyph glyph-name="uni04EE" unicode="&#x4ee;" horiz-adv-x="1144" d="M503 438 L12 1475 L201 1475 L589 625 L977 1475 L1158 1475 L483 0 L302 0 L503 438 Z M308 1685 L308 1822 L836 1822 L836 1685 L308 1685 Z " />
<glyph glyph-name="uni04EF" unicode="&#x4ef;" horiz-adv-x="1016" d="M425 41 L24 1080 L203 1080 L508 246 L812 1080 L992 1080 L541 -86 Q480 -241 450 -290 Q379 -406 265 -428 Q215 -438 125 -439 L125 -291 Q229 -290 268 -264 Q322 -228 365 -115 L425 41 Z M231 1329 L231 1466 L759 1466 L759 1329 L231 1329 Z " />
<glyph glyph-name="uni1E1E" unicode="&#x1e1e;" horiz-adv-x="1146" d="M184 0 L184 1475 L1094 1475 L1094 1327 L360 1327 L360 830 L973 830 L973 683 L360 683 L360 0 L184 0 Z M654 1856 Q704 1856 738 1819 Q767 1787 767 1744 Q767 1694 729 1661 Q696 1632 652 1632 Q601 1632 567 1669 Q537 1701 537 1745 Q537 1794 575 1828 Q607 1856 654 1856 Z " />
<glyph glyph-name="Wdieresis" unicode="&#x1e84;" horiz-adv-x="1888" d="M448 -32 L80 1475 L259 1475 L529 328 L896 1483 L993 1483 L1359 328 L1629 1475 L1809 1475 L1440 -32 L1312 -32 L944 1131 L577 -32 L448 -32 Z M754 1850 Q802 1850 834 1815 Q862 1785 862 1744 Q862 1696 826 1665 Q794 1637 752 1637 Q704 1637 670 1672 Q642 1702 642 1744 Q642 1791 678 1823 Q709 1850 754 1850 Z M1139 1850 Q1186 1850 1219 1815 Q1247 1785 1247 1744 Q1247 1696 1211 1665 Q1179 1637 1137 1637 Q1089 1637 1055 1672 Q1027 1702 1027 1744 Q1027 1791 1063 1823 Q1094 1850 1139 1850 Z " />
<glyph glyph-name="wdieresis" unicode="&#x1e85;" horiz-adv-x="1582" d="M377 -25 L55 1080 L228 1080 L452 276 L745 1080 L837 1080 L1130 276 L1354 1080 L1527 1080 L1205 -25 L1088 -25 L791 797 L494 -25 L377 -25 Z M615 1486 Q663 1486 695 1451 Q723 1421 723 1380 Q723 1332 687 1301 Q655 1273 614 1273 Q565 1273 532 1308 Q504 1338 504 1380 Q504 1427 540 1459 Q571 1486 615 1486 Z M970 1486 Q1018 1486 1050 1451 Q1078 1421 1078 1380 Q1078 1332 1042 1301 Q1010 1273 969 1273 Q920 1273 887 1308 Q859 1338 859 1380 Q859 1427 895 1459 Q926 1486 970 1486 Z " />
<glyph glyph-name="uni2007" unicode="&#x2007;" horiz-adv-x="1303" d="" />
<glyph glyph-name="uni2011" unicode="&#x2011;" horiz-adv-x="805" d="M123 541 L123 689 L683 689 L683 541 L123 541 Z " />
<glyph glyph-name="figuredash" unicode="&#x2012;" horiz-adv-x="911" d="M53 540 L53 687 L858 687 L858 540 L53 540 Z " />
<glyph glyph-name="afii00208" unicode="&#x2015;" horiz-adv-x="1303" d="M-90 540 L-90 687 L1392 687 L1392 540 L-90 540 Z " />
<glyph glyph-name="zerosuperior" unicode="&#x2070;" horiz-adv-x="811" d="M405 1695 Q753 1695 753 1249 Q753 803 405 803 Q57 803 57 1253 Q57 1447 128 1558 Q216 1695 405 1695 Z M404 1572 Q280 1572 235 1452 Q206 1375 206 1251 Q206 1108 242 1029 Q289 926 404 926 Q529 926 574 1046 Q603 1122 603 1249 Q603 1391 567 1469 Q520 1572 404 1572 Z " />
<glyph glyph-name="foursuperior" unicode="&#x2074;" horiz-adv-x="812" d="M493 819 L493 998 L56 998 L56 1096 L336 1679 L499 1679 L227 1119 L493 1119 L493 1437 L637 1437 L637 1119 L779 1119 L779 998 L637 998 L637 819 L493 819 Z " />
<glyph glyph-name="fivesuperior" unicode="&#x2075;" horiz-adv-x="811" d="M103 1224 L136 1679 L682 1679 L682 1557 L274 1557 L254 1338 Q336 1372 422 1372 Q557 1372 639 1311 Q741 1236 741 1089 Q741 952 653 879 Q563 803 392 803 Q179 803 98 911 Q58 965 47 1075 L193 1075 Q202 1010 235 974 Q281 925 395 925 Q590 925 590 1086 Q590 1255 404 1255 Q301 1255 197 1178 L103 1224 Z " />
<glyph glyph-name="sixsuperior" unicode="&#x2076;" horiz-adv-x="810" d="M231 1310 Q314 1369 427 1369 Q554 1369 638 1310 Q739 1239 739 1097 Q739 955 644 879 Q555 807 409 807 Q234 807 149 909 Q81 992 81 1165 Q81 1419 154 1547 Q237 1691 432 1691 Q599 1691 671 1596 Q707 1548 717 1451 L579 1451 Q570 1507 550 1533 Q515 1577 430 1577 Q308 1577 267 1478 Q244 1420 231 1310 Z M410 1259 Q224 1259 224 1093 Q224 921 411 921 Q597 921 597 1090 Q597 1259 410 1259 Z " />
<glyph glyph-name="sevensuperior" unicode="&#x2077;" horiz-adv-x="635" d="M458 1557 L0 1557 L0 1679 L597 1679 L597 1574 L257 819 L87 819 L458 1557 Z " />
<glyph glyph-name="eightsuperior" unicode="&#x2078;" horiz-adv-x="812" d="M184 1276 Q143 1305 127 1323 Q86 1369 86 1453 Q86 1572 176 1636 Q260 1695 404 1695 Q562 1695 647 1625 Q723 1562 723 1453 Q723 1370 681 1322 Q663 1301 626 1276 Q680 1247 706 1217 Q759 1158 759 1065 Q759 937 657 868 Q562 803 403 803 Q233 803 138 877 Q51 946 51 1064 Q51 1162 105 1219 Q131 1246 184 1276 Z M405 1579 Q228 1579 228 1455 Q228 1327 406 1327 Q581 1327 581 1453 Q581 1579 405 1579 Z M403 1214 Q299 1214 249 1180 Q198 1146 198 1071 Q198 991 249 957 Q299 923 407 923 Q511 923 561 957 Q612 991 612 1069 Q612 1146 561 1180 Q511 1214 403 1214 Z " />
<glyph glyph-name="ninesuperior" unicode="&#x2079;" horiz-adv-x="809" d="M561 1205 Q482 1145 377 1145 Q255 1145 176 1203 Q80 1273 80 1408 Q80 1547 171 1621 Q256 1691 397 1691 Q565 1691 646 1589 Q712 1506 712 1331 Q712 1073 649 951 Q574 807 375 807 Q199 807 124 909 Q87 959 76 1064 L214 1064 Q224 998 246 970 Q285 921 377 921 Q500 921 535 1027 Q554 1083 561 1205 Z M395 1577 Q222 1577 222 1415 Q222 1255 393 1255 Q569 1255 569 1413 Q569 1577 395 1577 Z " />
<glyph glyph-name="zeroinferior" unicode="&#x2080;" horiz-adv-x="811" d="M405 671 Q753 671 753 225 Q753 -221 405 -221 Q57 -221 57 229 Q57 423 128 534 Q216 671 405 671 Z M404 548 Q280 548 235 428 Q206 351 206 227 Q206 84 242 5 Q289 -98 404 -98 Q529 -98 574 22 Q603 98 603 225 Q603 367 567 445 Q520 548 404 548 Z " />
<glyph glyph-name="oneinferior" unicode="&#x2081;" horiz-adv-x="559" d="M244 -205 L244 510 L15 434 L15 562 L288 655 L392 655 L392 -205 L244 -205 Z " />
<glyph glyph-name="twoinferior" unicode="&#x2082;" horiz-adv-x="811" d="M45 -205 Q57 -114 94 -60 Q145 16 287 128 Q459 263 501 311 Q552 370 552 424 Q552 482 513 514 Q469 550 392 550 Q285 550 231 475 Q208 442 195 369 L50 369 Q72 515 129 577 Q217 671 389 671 Q537 671 622 608 Q706 545 706 427 Q706 315 628 235 Q576 180 439 80 Q341 9 311 -18 Q280 -45 250 -84 L730 -84 L730 -205 L45 -205 Z " />
<glyph glyph-name="threeinferior" unicode="&#x2083;" horiz-adv-x="811" d="M264 188 L264 302 Q380 301 417 306 Q488 315 520 345 Q551 374 551 434 Q551 550 396 550 Q245 550 213 424 L68 424 Q85 534 144 592 Q224 671 390 671 Q540 671 623 607 Q701 547 701 437 Q701 317 595 254 Q734 188 734 42 Q734 -221 391 -221 Q190 -221 104 -126 Q57 -72 44 51 L190 51 Q213 -99 396 -99 Q583 -99 583 37 Q583 152 479 177 Q435 188 315 188 Q298 188 264 188 Z " />
<glyph glyph-name="fourinferior" unicode="&#x2084;" horiz-adv-x="812" d="M493 -205 L493 -26 L56 -26 L56 72 L336 655 L499 655 L227 95 L493 95 L493 413 L637 413 L637 95 L779 95 L779 -26 L637 -26 L637 -205 L493 -205 Z " />
<glyph glyph-name="fiveinferior" unicode="&#x2085;" horiz-adv-x="811" d="M103 200 L136 655 L682 655 L682 533 L274 533 L254 314 Q336 348 422 348 Q557 348 639 287 Q741 212 741 65 Q741 -72 653 -145 Q563 -221 392 -221 Q179 -221 98 -113 Q58 -59 47 51 L193 51 Q202 -14 235 -50 Q281 -99 395 -99 Q590 -99 590 62 Q590 231 404 231 Q301 231 197 154 L103 200 Z " />
<glyph glyph-name="sixinferior" unicode="&#x2086;" horiz-adv-x="810" d="M231 286 Q314 345 427 345 Q554 345 638 286 Q739 215 739 73 Q739 -69 644 -145 Q555 -217 409 -217 Q234 -217 149 -115 Q81 -32 81 141 Q81 395 154 523 Q237 667 432 667 Q599 667 671 572 Q707 524 717 427 L579 427 Q570 483 550 509 Q515 553 430 553 Q308 553 267 454 Q244 396 231 286 Z M410 235 Q224 235 224 69 Q224 -103 411 -103 Q597 -103 597 66 Q597 235 410 235 Z " />
<glyph glyph-name="seveninferior" unicode="&#x2087;" horiz-adv-x="635" d="M458 533 L0 533 L0 655 L597 655 L597 550 L257 -205 L87 -205 L458 533 Z " />
<glyph glyph-name="eightinferior" unicode="&#x2088;" horiz-adv-x="812" d="M184 252 Q143 281 127 299 Q86 345 86 429 Q86 548 176 612 Q260 671 404 671 Q562 671 647 601 Q723 538 723 429 Q723 346 681 298 Q663 277 626 252 Q680 223 706 193 Q759 134 759 41 Q759 -87 657 -156 Q562 -221 403 -221 Q233 -221 138 -147 Q51 -78 51 40 Q51 138 105 195 Q131 222 184 252 Z M405 555 Q228 555 228 431 Q228 303 406 303 Q581 303 581 429 Q581 555 405 555 Z M403 190 Q299 190 249 156 Q198 122 198 47 Q198 -33 249 -67 Q299 -101 407 -101 Q511 -101 561 -67 Q612 -33 612 45 Q612 122 561 156 Q511 190 403 190 Z " />
<glyph glyph-name="nineinferior" unicode="&#x2089;" horiz-adv-x="809" d="M561 181 Q482 121 377 121 Q255 121 176 179 Q80 249 80 384 Q80 523 171 597 Q256 667 397 667 Q565 667 646 565 Q712 482 712 307 Q712 49 649 -73 Q574 -217 375 -217 Q199 -217 124 -115 Q87 -65 76 40 L214 40 Q224 -26 246 -54 Q285 -103 377 -103 Q500 -103 535 3 Q554 59 561 181 Z M395 553 Q222 553 222 391 Q222 231 393 231 Q569 231 569 389 Q569 553 395 553 Z " />
<glyph glyph-name="afii61289" unicode="&#x2113;" horiz-adv-x="983" d="M465 592 Q452 521 438 432 Q400 189 400 133 Q400 79 438 79 Q480 79 520 147 Q546 191 559 234 L629 203 Q544 -40 395 -40 Q312 -40 268 27 Q236 75 236 159 Q236 230 255 433 Q217 392 188 370 Q147 339 133 325 L96 386 Q105 392 148 437 Q223 514 272 570 Q351 992 450 1240 Q559 1510 715 1510 Q788 1510 826 1455 Q863 1402 863 1328 Q863 1132 720 903 Q643 778 465 592 Z M485 718 Q587 830 646 931 Q717 1051 751 1185 Q773 1272 773 1326 Q773 1367 753 1391 Q738 1408 717 1408 Q657 1408 618 1306 Q577 1196 533 983 Q521 923 485 718 Z " />
<glyph glyph-name="afii61352" unicode="&#x2116;" horiz-adv-x="2432" d="M184 0 L184 1475 L354 1475 L1071 371 L1071 1475 L1244 1475 L1244 -19 L1127 -19 L357 1180 L357 0 L184 0 Z M1863 1216 Q2051 1216 2166 1086 Q2272 965 2272 750 Q2272 535 2166 413 Q2051 282 1857 282 Q1662 282 1547 414 Q1441 536 1441 748 Q1441 967 1547 1086 Q1663 1216 1863 1216 Z M1860 1077 Q1725 1077 1667 971 Q1615 878 1615 750 Q1615 622 1666 528 Q1723 421 1856 421 Q1991 421 2047 528 Q2098 623 2098 750 Q2098 879 2047 971 Q1989 1077 1860 1077 Z M1460 0 L1460 143 L2266 143 L2266 0 L1460 0 Z " />
<glyph glyph-name="estimated" unicode="&#x212e;" horiz-adv-x="1501" d="M1336 607 L393 607 L393 356 Q419 268 447 229 Q537 100 748 100 Q952 100 1063 215 Q1112 265 1151 357 L1287 357 Q1181 -24 746 -24 Q467 -24 314 154 Q164 327 164 625 Q164 942 329 1120 Q489 1292 755 1292 Q975 1292 1127 1179 Q1313 1040 1332 758 Q1334 728 1336 607 Z M1114 709 L1114 928 Q1094 985 1060 1025 Q993 1103 916 1137 Q845 1168 744 1168 Q580 1168 487 1069 Q444 1023 399 928 L399 709 L1114 709 Z " />
<glyph glyph-name="onethird" unicode="&#x2153;" horiz-adv-x="1922" d="M361 614 L361 1329 L132 1254 L132 1382 L405 1475 L509 1475 L509 614 L361 614 Z M1280 393 L1280 507 Q1312 507 1350 507 Q1447 506 1495 526 Q1567 554 1567 639 Q1567 755 1412 755 Q1261 755 1229 629 L1084 629 Q1101 739 1160 797 Q1240 876 1406 876 Q1556 876 1639 812 Q1717 752 1717 642 Q1717 562 1676 512 Q1655 485 1611 459 Q1750 393 1750 247 Q1750 -16 1409 -16 Q1205 -16 1120 79 Q1073 133 1060 256 L1206 256 Q1232 106 1412 106 Q1598 106 1598 243 Q1598 340 1531 370 Q1479 393 1330 393 Q1308 393 1280 393 Z M372 0 L1141 1475 L1292 1475 L524 0 L372 0 Z " />
<glyph glyph-name="twothirds" unicode="&#x2154;" horiz-adv-x="1925" d="M63 614 Q75 705 112 759 Q163 835 305 947 Q477 1083 519 1131 Q570 1190 570 1244 Q570 1302 531 1334 Q488 1370 410 1370 Q303 1370 249 1295 Q225 1261 213 1189 L68 1189 Q90 1335 147 1397 Q235 1491 407 1491 Q555 1491 640 1428 Q724 1366 724 1247 Q724 1135 646 1054 Q594 1000 457 899 Q358 827 329 801 Q299 775 268 735 L748 735 L748 614 L63 614 Z M1355 393 L1355 507 Q1387 507 1426 507 Q1521 506 1570 526 Q1642 554 1642 638 Q1642 755 1487 755 Q1336 755 1304 629 L1159 629 Q1177 740 1235 797 Q1315 876 1481 876 Q1631 876 1714 812 Q1792 752 1792 642 Q1792 522 1686 459 Q1825 393 1825 247 Q1825 -16 1484 -16 Q1280 -16 1195 79 Q1148 133 1135 256 L1281 256 Q1307 106 1487 106 Q1674 106 1674 243 Q1674 340 1606 370 Q1555 393 1405 393 Q1383 393 1355 393 Z M508 0 L1276 1475 L1428 1475 L659 0 L508 0 Z " />
<glyph glyph-name="uni2155" unicode="&#x2155;" horiz-adv-x="1922" d="M374 614 L374 1329 L145 1254 L145 1382 L418 1475 L522 1475 L522 614 L374 614 Z M1132 405 L1165 860 L1711 860 L1711 738 L1303 738 L1283 519 Q1363 553 1451 553 Q1586 553 1668 492 Q1770 417 1770 270 Q1770 134 1682 60 Q1592 -16 1421 -16 Q1208 -16 1127 92 Q1088 145 1076 256 L1222 256 Q1233 188 1264 155 Q1310 106 1424 106 Q1618 106 1618 267 Q1618 436 1432 436 Q1329 436 1227 359 L1132 405 Z M385 0 L1154 1475 L1305 1475 L537 0 L385 0 Z " />
<glyph glyph-name="uni2156" unicode="&#x2156;" horiz-adv-x="1925" d="M72 614 Q84 705 120 759 Q171 835 314 947 Q487 1084 528 1131 Q579 1190 579 1244 Q579 1302 540 1334 Q497 1370 419 1370 Q312 1370 258 1295 Q234 1262 222 1189 L77 1189 Q98 1335 156 1397 Q244 1491 416 1491 Q564 1491 649 1428 Q733 1366 733 1247 Q733 1135 655 1054 Q603 999 466 899 Q367 827 338 801 Q308 775 277 735 L743 735 L743 614 L72 614 Z M1198 405 L1231 860 L1777 860 L1777 738 L1369 738 L1349 519 Q1429 553 1518 553 Q1652 553 1734 492 Q1836 417 1836 270 Q1836 133 1748 60 Q1658 -16 1487 -16 Q1274 -16 1193 92 Q1155 144 1142 256 L1288 256 Q1299 188 1330 155 Q1376 106 1490 106 Q1684 106 1684 267 Q1684 436 1499 436 Q1396 436 1293 359 L1198 405 Z M503 0 L1271 1475 L1423 1475 L654 0 L503 0 Z " />
<glyph glyph-name="uni2157" unicode="&#x2157;" horiz-adv-x="1925" d="M310 1007 L310 1122 Q344 1121 361 1121 Q378 1121 381 1121 Q478 1121 525 1140 Q597 1168 597 1253 Q597 1370 442 1370 Q291 1370 259 1244 L114 1244 Q131 1354 190 1412 Q270 1491 436 1491 Q586 1491 669 1427 Q747 1367 747 1257 Q747 1136 641 1073 Q780 1007 780 861 Q780 598 437 598 Q235 598 150 693 Q103 747 90 870 L236 870 Q259 720 442 720 Q629 720 629 856 Q629 985 499 1001 Q449 1007 310 1007 Z M1199 405 L1232 860 L1778 860 L1778 738 L1369 738 L1350 519 Q1430 553 1518 553 Q1653 553 1735 492 Q1837 417 1837 270 Q1837 133 1749 60 Q1660 -16 1488 -16 Q1275 -16 1194 92 Q1155 145 1143 256 L1289 256 Q1298 190 1331 155 Q1377 106 1491 106 Q1686 106 1686 267 Q1686 436 1500 436 Q1398 436 1293 359 L1199 405 Z M503 0 L1271 1475 L1423 1475 L654 0 L503 0 Z " />
<glyph glyph-name="uni2158" unicode="&#x2158;" horiz-adv-x="1925" d="M519 614 L519 794 L83 794 L83 893 L362 1475 L525 1475 L253 915 L519 915 L519 1232 L663 1232 L663 915 L806 915 L806 794 L663 794 L663 614 L519 614 Z M1194 405 L1227 860 L1773 860 L1773 738 L1365 738 L1345 519 Q1425 553 1513 553 Q1648 553 1730 492 Q1832 417 1832 270 Q1832 134 1744 60 Q1654 -16 1483 -16 Q1270 -16 1189 92 Q1150 144 1138 256 L1284 256 Q1293 192 1326 155 Q1372 106 1486 106 Q1681 106 1681 267 Q1681 436 1495 436 Q1393 436 1288 359 L1194 405 Z M503 0 L1271 1475 L1423 1475 L654 0 L503 0 Z " />
</font>
</svg>
