<?xml version="1.0" encoding="UTF-8" standalone="no"?>
<!DOCTYPE svg PUBLIC "-//W3C//DTD SVG 1.1//EN" "http://www.w3.org/Graphics/SVG/1.1/DTD/svg11.dtd">
<svg xmlns="http://www.w3.org/2000/svg">
<metadata>
This is a custom SVG webfont generated by Font Squirrel.
Copyright   : 2010 by URW Design  Development
</metadata>
<defs>
<font id="webfontUvZgpnLo" horiz-adv-x="1147" vert-adv-y="2048">
<font-face units-per-em="2048" ascent="1536" descent="-512"/>
<missing-glyph horiz-adv-x="573"/>
<glyph unicode=" " horiz-adv-x="573" vert-adv-y="0"/>
<glyph unicode="!" horiz-adv-x="625" vert-adv-y="2457" d="M208 0v215h204v-215h-204zM229 388l-23 1087h204l-23 -1087h-158z"/>
<glyph unicode="&quot;" horiz-adv-x="603" vert-adv-y="2457" d="M95 908v567h134v-567h-134zM374 908v567h134v-567h-134z"/>
<glyph unicode="#" vert-adv-y="2457" d="M245 464h-189l19 137h189l35 247h-189l19 137h189l67 477h158l-67 -477h268l67 477h157l-67 -477h190l-20 -137h-189l-35 -247h190l-20 -137h-189l-65 -464h-158l66 464h-268l-66 -464h-157zM422 601h268l35 247h-268z"/>
<glyph unicode="$" vert-adv-y="2457" d="M64 70v345h148v-229q135 -44 303 -54v567q-86 24 -139 41q-170 56 -234 164q-46 79 -46 192q0 234 189 338q82 45 230 52v155h118v-157q184 -13 354 -72v-330h-148v212q-98 33 -206 42v-489q88 -24 143 -42q159 -53 234 -169q62 -95 62 -224q0 -143 -72 -251 q-104 -154 -367 -176v-155h-118v154q-232 13 -451 86zM515 879v459q-103 -7 -158 -46q-90 -63 -90 -179q0 -123 97 -176q52 -28 151 -58zM633 663v-528q73 13 103 23t59 31q104 77 104 209q0 127 -91 193q-41 29 -133 58q-31 10 -42 14z"/>
<glyph unicode="%" horiz-adv-x="1685" vert-adv-y="2457" d="M432 1506q159 0 263 -111q94 -99 94 -240q0 -140 -94 -239q-104 -111 -262 -111q-161 0 -265 111q-94 99 -94 244q0 138 94 235q107 111 264 111zM432 1369q-91 0 -150 -67q-53 -61 -53 -144q0 -89 53 -150q58 -67 150 -67q91 0 149 67q53 62 53 147q0 86 -53 147 q-59 67 -149 67zM315 0l903 1475h152l-903 -1475h-152zM1254 669q159 0 263 -111q94 -99 94 -239q0 -139 -94 -239q-104 -111 -263 -111q-160 0 -264 111q-94 99 -94 243q0 139 94 235q107 111 264 111zM1254 533q-91 0 -150 -67q-53 -61 -53 -144q0 -89 53 -150 q58 -67 150 -67q91 0 149 67q53 61 53 147q0 87 -53 147q-59 67 -149 67z"/>
<glyph unicode="&amp;" horiz-adv-x="1309" vert-adv-y="2457" d="M648 845l297 -410q58 153 105 368h163q-46 -199 -73 -284q-42 -131 -91 -226l213 -293h-192l-117 163l-16 -19q-66 -74 -89 -91q-118 -85 -285 -85q-199 0 -317 97q-140 116 -140 321q0 124 61 220q47 74 172 178l99 82q-54 70 -87 121q-74 113 -74 212q0 130 88 218 q89 89 227 89q141 0 231 -92q86 -87 86 -209q0 -126 -121 -241q-33 -32 -140 -119zM559 964q89 69 124 105q67 67 67 136q0 64 -43 109q-45 46 -115 46q-68 0 -112 -45q-44 -44 -44 -107t49 -138zM528 746q-117 -94 -156 -134q-89 -92 -89 -211q0 -132 81 -208 q78 -74 209 -74q118 0 201 70q20 17 84 103z"/>
<glyph unicode="'" horiz-adv-x="321" vert-adv-y="2457" d="M94 908v567h134v-567h-134z"/>
<glyph unicode="(" horiz-adv-x="819" vert-adv-y="2457" d="M662 -432h-163q-288 469 -288 963q0 491 288 954h163q-121 -210 -182 -394q-90 -271 -90 -560q0 -311 103 -603q57 -164 169 -360z"/>
<glyph unicode=")" horiz-adv-x="819" vert-adv-y="2457" d="M320 -432h-163q122 213 182 398q90 274 90 565q0 308 -103 598q-58 164 -169 356h163q288 -465 288 -954q0 -492 -288 -963z"/>
<glyph unicode="*" vert-adv-y="2457" d="M168 1164l51 148l283 -101l-5 296h152l-5 -296l282 99l53 -147l-294 -83l198 -247l-129 -93l-181 259l-182 -258l-129 91l198 248z"/>
<glyph unicode="+" vert-adv-y="2457" d="M142 661v152h356v375h153v-375h355v-152h-355v-376h-153v376h-356z"/>
<glyph unicode="," horiz-adv-x="573" vert-adv-y="2457" d="M76 -273l141 494h209l-178 -494h-172z"/>
<glyph unicode="-" horiz-adv-x="716" vert-adv-y="2457" d="M88 478v151h540v-151h-540z"/>
<glyph unicode="." horiz-adv-x="573" vert-adv-y="2457" d="M186 0v221h204v-221h-204z"/>
<glyph unicode="/" horiz-adv-x="791" vert-adv-y="2457" d="M63 -188l527 1683h132l-527 -1683h-132z"/>
<glyph unicode="0" vert-adv-y="2457" d="M573 1504q292 0 424 -310q78 -183 78 -456q0 -306 -97 -498q-136 -269 -405 -269q-291 0 -423 310q-78 183 -78 462q0 301 97 492q136 269 404 269zM573 1349q-185 0 -271 -233q-53 -146 -53 -373q0 -263 66 -416q88 -201 258 -201q186 0 272 233q53 146 53 379 q0 258 -66 410q-87 201 -259 201z"/>
<glyph unicode="1" vert-adv-y="2457" d="M498 151v1154l-294 -125l-48 131l370 164h146v-1324h296v-151h-776v151h306z"/>
<glyph unicode="2" vert-adv-y="2457" d="M76 0q13 134 85 252q56 94 182 223q76 78 210 205q145 138 198 227q53 91 53 184q0 117 -69 188q-72 74 -189 74q-151 0 -235 -133q-44 -71 -65 -206l-160 25q27 176 91 273q125 192 374 192q186 0 306 -105q130 -114 130 -306q0 -170 -105 -309q-73 -97 -265 -274 q-188 -174 -233 -233q-41 -53 -74 -126h565v257h156v-408h-955z"/>
<glyph unicode="3" vert-adv-y="2457" d="M400 703v139q176 -1 269 37q155 63 155 227q0 118 -85 188q-70 58 -180 58q-154 0 -230 -112q-32 -48 -52 -136l-167 24q28 139 101 227q123 149 353 149q206 0 325 -117q109 -108 109 -275q0 -154 -95 -246q-52 -50 -148 -87q131 -41 201 -121q91 -104 91 -256 q0 -203 -144 -325q-126 -106 -339 -106q-263 0 -390 159q-75 95 -96 264l168 15q41 -285 317 -285q125 0 203 62q101 80 101 219q0 194 -201 264q-93 33 -266 34z"/>
<glyph unicode="4" vert-adv-y="2457" d="M712 0v339h-627v157l423 979h184l-432 -990h452v546h167v-546h210v-146h-210v-339h-167z"/>
<glyph unicode="5" vert-adv-y="2457" d="M148 717l48 758h756v-345h-156v192h-441l-34 -475q114 75 246 75q183 0 306 -103q161 -133 161 -372q0 -208 -130 -339q-135 -137 -364 -137q-399 0 -474 404l160 36q19 -103 71 -173q87 -114 246 -114q147 0 237 103q80 90 80 222q0 145 -89 235q-84 85 -223 85 q-95 0 -172 -43q-43 -23 -108 -80z"/>
<glyph unicode="6" vert-adv-y="2457" d="M293 799q48 51 81 75q92 66 222 66q184 0 303 -113q141 -134 141 -365q0 -226 -131 -363q-123 -128 -331 -128q-241 0 -367 181q-102 147 -102 451q0 418 118 650q127 251 390 251q257 0 383 -272l-151 -57q-42 79 -73 110q-64 66 -163 66q-132 0 -208 -114 q-64 -97 -94 -287q-5 -32 -18 -151zM576 786q-135 0 -210 -88q-78 -90 -78 -236q0 -154 79 -249q73 -89 210 -89q135 0 208 88q78 96 78 244q0 151 -77 242q-75 88 -210 88z"/>
<glyph unicode="7" vert-adv-y="2457" d="M846 1322h-552v-209h-156v362h884v-138l-508 -1337h-194z"/>
<glyph unicode="8" vert-adv-y="2457" d="M352 783q-91 41 -139 98q-74 89 -74 225q0 184 123 293q117 105 310 105q211 0 330 -122q104 -108 104 -276q0 -144 -84 -236q-45 -49 -129 -87q105 -39 173 -114q93 -104 93 -266q0 -199 -138 -318q-132 -114 -349 -114q-233 0 -366 130q-120 118 -120 303 q0 170 105 278q65 66 161 101zM572 1352q-142 0 -209 -79q-56 -65 -56 -170q0 -122 71 -188q70 -64 194 -64q135 0 205 75q61 65 61 175q0 118 -66 183q-68 68 -200 68zM572 701q-148 0 -230 -81q-78 -77 -78 -199q0 -145 90 -222q81 -71 218 -71q150 0 233 83q76 77 76 207 q0 136 -90 213q-81 70 -219 70z"/>
<glyph unicode="9" vert-adv-y="2457" d="M838 710q-46 -49 -81 -73q-93 -64 -224 -64q-178 0 -292 94q-154 126 -154 364q0 217 131 349q124 124 329 124q262 0 385 -196q89 -142 89 -479q0 -367 -77 -578q-101 -280 -420 -280q-197 0 -318 108q-49 44 -97 124l143 84l18 -26q48 -65 90 -92q71 -45 168 -45 q153 0 217 97q84 127 93 489zM552 1351q-135 0 -209 -84q-79 -88 -79 -232q0 -140 77 -225q76 -83 211 -83q136 0 212 83q77 84 77 221q0 148 -79 236q-74 84 -210 84z"/>
<glyph unicode=":" horiz-adv-x="573" vert-adv-y="2457" d="M186 0v221h204v-221h-204zM186 636v221h204v-221h-204z"/>
<glyph unicode=";" horiz-adv-x="573" vert-adv-y="2457" d="M194 636v221h204v-221h-204zM53 -273l141 494h209l-178 -494h-172z"/>
<glyph unicode="&lt;" vert-adv-y="2457" d="M317 737l688 -373v-168l-867 486v110l867 486v-168z"/>
<glyph unicode="=" vert-adv-y="2457" d="M142 493v153h864v-153h-864zM142 828v152h864v-152h-864z"/>
<glyph unicode="&gt;" vert-adv-y="2457" d="M831 737l-689 373v168l867 -486v-110l-867 -486v168z"/>
<glyph unicode="?" horiz-adv-x="1015" vert-adv-y="2457" d="M367 0v215h204v-215h-204zM387 389v408q156 1 242 45q139 71 139 236q0 119 -77 196q-78 79 -195 79q-137 0 -212 -112q-41 -62 -60 -189h-165q12 110 33 169q45 131 147 207q107 80 262 80q191 0 314 -118q130 -123 130 -321q0 -181 -123 -292q-74 -68 -181 -97 q-33 -9 -95 -18v-273h-159z"/>
<glyph unicode="@" horiz-adv-x="2139" vert-adv-y="2457" d="M1343 374q-112 -160 -317 -160q-176 0 -285 117q-105 113 -105 294q0 183 105 296q107 114 281 114q150 0 245 -81q28 -25 61 -70l6 142h141v-528q0 -85 23 -116q28 -37 102 -37q122 0 184 108q59 100 59 264q0 310 -208 484q-206 172 -538 172q-406 0 -625 -265 q-175 -211 -175 -525q0 -312 175 -479q224 -212 676 -212q349 0 664 121l52 -129q-127 -50 -229 -76q-221 -56 -486 -56q-327 0 -543 91q-484 203 -484 744q0 373 233 628q272 298 740 298q364 0 608 -174q171 -123 253 -308q61 -141 61 -303q0 -236 -110 -371 q-57 -70 -146 -108q-85 -36 -178 -36q-133 0 -191 62q-34 36 -49 99zM1048 897q-110 0 -177 -74q-66 -75 -66 -198q0 -124 66 -198q68 -75 180 -75q121 0 196 85q66 75 66 184q0 117 -66 191q-76 85 -199 85z"/>
<glyph unicode="A" horiz-adv-x="1459" vert-adv-y="2457" d="M1043 434h-633l-104 -283h161v-151h-467v151h122l505 1324h198l509 -1324h126v-151h-473v151h162zM987 582l-264 714l-258 -714h522z"/>
<glyph unicode="B" horiz-adv-x="1332" vert-adv-y="2457" d="M226 151v1173h-144v151h583q235 0 356 -92q127 -96 127 -274q0 -212 -206 -305q120 -28 191 -105q96 -106 96 -269q0 -229 -178 -343q-134 -87 -393 -87h-576v151h144zM401 867h260q143 0 221 54q86 59 86 172q0 127 -101 188q-77 47 -208 47h-258v-461zM401 147h217 q208 0 306 61q121 74 121 225q0 157 -123 233q-91 55 -239 55h-282v-574z"/>
<glyph unicode="C" horiz-adv-x="1476" vert-adv-y="2457" d="M1263 348l114 -121q-95 -116 -203 -173q-160 -85 -375 -85q-360 0 -542 221q-165 200 -165 532q0 359 194 575q187 209 504 209q246 0 395 -115v84h148v-431h-155v27q0 101 -49 157t-144 90q-85 30 -192 30q-255 0 -392 -187q-125 -170 -125 -437q0 -273 141 -438 q132 -156 386 -156q179 0 316 86q47 30 144 132z"/>
<glyph unicode="D" horiz-adv-x="1496" vert-adv-y="2457" d="M226 151v1173h-144v151h531q348 0 553 -168q237 -195 237 -569q0 -375 -237 -570q-205 -168 -553 -168h-531v151h144zM406 151h195q272 0 432 130q186 151 186 457q0 304 -185 456q-160 130 -433 130h-195v-1173z"/>
<glyph unicode="E" horiz-adv-x="1211" vert-adv-y="2457" d="M226 151v1173h-144v151h1022v-359h-156v208h-542v-481h486v-151h-486v-541h552v249h156v-400h-1032v151h144z"/>
<glyph unicode="F" horiz-adv-x="1141" vert-adv-y="2457" d="M226 151v1173h-144v151h1021v-359h-156v208h-541v-493h486v-151h-486v-529h183v-151h-507v151h144z"/>
<glyph unicode="G" horiz-adv-x="1663" vert-adv-y="2457" d="M805 571v151h677v-663q-259 -90 -596 -90q-261 0 -435 94q-178 97 -270 275q-89 170 -89 392q0 376 253 600q199 175 516 175q260 0 423 -114v84h148v-431h-156v27q0 99 -50 155q-52 59 -158 94q-84 27 -198 27q-274 0 -433 -170q-161 -171 -161 -445q0 -281 170 -450 q158 -155 455 -155q203 0 413 66v378h-509z"/>
<glyph unicode="H" horiz-adv-x="1473" vert-adv-y="2457" d="M226 151v1173h-144v151h475v-151h-151v-473h660v473h-151v151h475v-151h-144v-1173h144v-151h-475v151h151v549h-660v-549h151v-151h-475v151h144z"/>
<glyph unicode="I" horiz-adv-x="639" vert-adv-y="2457" d="M229 151v1173h-144v151h469v-151h-145v-1173h145v-151h-469v151h144z"/>
<glyph unicode="J" horiz-adv-x="634" vert-adv-y="2457" d="M230 1324h-151v151h476v-151h-145v-1189q0 -160 -28 -238q-49 -134 -189 -176q-56 -17 -150 -21v151q109 9 146 58q26 36 35 96q6 37 6 119v1200z"/>
<glyph unicode="K" horiz-adv-x="1264" vert-adv-y="2457" d="M226 151v1173h-144v151h461v-151h-137v-533l490 533h-129v151h444v-151h-107l-501 -540l528 -633h139v-151h-485v151h131l-510 611v-611h131v-151h-455v151h144z"/>
<glyph unicode="L" horiz-adv-x="1151" vert-adv-y="2457" d="M226 151v1173h-144v151h484v-151h-160v-1173h516v261h156v-412h-996v151h144z"/>
<glyph unicode="M" horiz-adv-x="1810" vert-adv-y="2457" d="M191 151l82 1173h-145v151h379l346 -1007q24 -68 53 -200q24 118 50 194l349 1013h375v-151h-145l82 -1173h129v-151h-443v151h138l-53 872q-1 24 -7 223q-47 -176 -62 -218l-352 -1028h-125l-352 1026q-9 26 -27 92l-37 128q-5 -196 -6 -222l-54 -873h140v-151h-444v151 h129z"/>
<glyph unicode="N" horiz-adv-x="1456" vert-adv-y="2457" d="M226 151v1173h-144v151h345l558 -947q19 -32 87 -172q-5 126 -5 195v773h-153v151h465v-151h-144v-1348h-125l-647 1110q-10 18 -75 152q6 -131 6 -157v-930h150v-151h-462v151h144z"/>
<glyph unicode="O" horiz-adv-x="1714" vert-adv-y="2457" d="M857 1506q234 0 423 -124q188 -123 277 -327q64 -148 64 -317q0 -299 -191 -515q-113 -128 -267 -193q-143 -61 -305 -61q-351 0 -575 254q-191 216 -191 524q0 192 90 361q105 199 308 309q166 89 367 89zM857 1348q-256 0 -425 -183q-156 -170 -156 -419 q0 -265 156 -435q169 -184 426 -184q254 0 423 184q156 170 156 427q0 261 -156 427q-174 183 -424 183z"/>
<glyph unicode="P" horiz-adv-x="1238" vert-adv-y="2457" d="M226 151v1173h-144v151h492q156 0 257 -19q175 -34 265 -158q81 -111 81 -278q0 -162 -79 -271q-129 -178 -523 -178h-169v-420h183v-151h-507v151h144zM406 719h174q202 0 296 65q117 80 117 240q0 154 -109 233q-93 67 -299 67h-179v-605z"/>
<glyph unicode="Q" horiz-adv-x="1714" vert-adv-y="2457" d="M481 -302l-55 146q95 70 152 95q68 31 158 40q-203 31 -357 153q-147 118 -223 289q-64 148 -64 317q0 299 191 514q224 254 573 254q350 0 574 -254q191 -215 191 -514t-190 -514q-176 -199 -427 -241q-49 -8 -140 -12q64 -16 206 -78q150 -67 223 -67q82 0 175 54 l52 -148q-122 -64 -235 -64q-68 0 -143 24q-43 14 -130 51q-100 42 -133 54q-74 27 -126 27q-115 0 -272 -126zM857 1348q-255 0 -425 -183q-156 -169 -156 -419q0 -264 156 -435q169 -183 426 -183q254 0 423 183q156 171 156 427q0 262 -156 427q-174 183 -424 183z"/>
<glyph unicode="R" horiz-adv-x="1296" vert-adv-y="2457" d="M226 151v1173h-144v151h524q143 0 233 -15q161 -27 246 -138q79 -103 79 -258q0 -187 -122 -290q-37 -32 -146 -80q57 -32 90 -82q30 -46 66 -148l109 -313h138v-151h-290l-121 372q-33 100 -59 143q-47 77 -106 100q-58 23 -173 23h-144v-487h171v-151h-495v151h144z M406 785h182q195 0 278 52q114 70 114 219q0 146 -107 216q-79 52 -272 52h-195v-539z"/>
<glyph unicode="S" horiz-adv-x="1234" vert-adv-y="2457" d="M110 0v440h156v-34q0 -104 50 -164q47 -55 140 -88q77 -27 177 -27q172 0 263 79q84 73 84 192q0 115 -89 185q-44 34 -123 62q-54 19 -186 52q-177 44 -246 76q-134 62 -180 168q-30 67 -30 156q0 178 112 288q122 121 340 121q207 0 332 -115v84h148v-431h-156v27 q0 101 -39 160q-38 57 -123 90q-68 27 -154 27q-136 0 -212 -70q-71 -66 -71 -166q0 -110 90 -168q63 -41 270 -90q189 -45 263 -81q234 -113 234 -362q0 -195 -124 -314q-135 -128 -399 -128q-229 0 -379 115v-84h-148z"/>
<glyph unicode="T" horiz-adv-x="1213" vert-adv-y="2457" d="M517 151v1173h-322v-239h-156v390h1136v-390h-156v239h-322v-1173h196v-151h-571v151h195z"/>
<glyph unicode="U" horiz-adv-x="1436" vert-adv-y="2457" d="M72 1324v151h475v-151h-151v-758q0 -200 49 -295q73 -141 273 -141t273 141q49 95 49 295v758h-151v151h475v-151h-144v-701q0 -214 -24 -323q-35 -161 -158 -247q-122 -84 -320 -84q-306 0 -425 196q-54 88 -69 234q-8 74 -8 224v701h-144z"/>
<glyph unicode="V" horiz-adv-x="1257" vert-adv-y="2457" d="M-10 1324v151h489v-151h-165l266 -830q34 -107 53 -192q22 104 51 194l266 828h-163v151h482v-151h-139l-443 -1357h-110l-450 1357h-137z"/>
<glyph unicode="W" horiz-adv-x="1907" vert-adv-y="2457" d="M5 1324v151h490v-151h-173l218 -766q24 -85 57 -224q38 157 57 222l263 939h93l265 -941q25 -93 53 -220q30 130 60 238l212 752h-163v151h466v-151h-131l-392 -1356h-108l-264 942q-23 83 -46 202q-26 -119 -48 -197l-269 -947h-111l-396 1356h-133z"/>
<glyph unicode="X" horiz-adv-x="1292" vert-adv-y="2457" d="M170 151l375 610l-345 563h-156v151h500v-151h-139l253 -431l246 431h-141v151h483v-151h-146l-349 -566l370 -607h166v-151h-515v151h145l-278 476l-272 -476h146v-151h-515v151h172z"/>
<glyph unicode="Y" horiz-adv-x="1153" vert-adv-y="2457" d="M484 151v520l-372 653h-128v151h482v-151h-147l264 -489l263 489h-145v151h463v-151h-132l-368 -655v-518h181v-151h-542v151h181z"/>
<glyph unicode="Z" horiz-adv-x="1143" vert-adv-y="2457" d="M49 0v143l771 1181h-573v-239h-156v390h960v-116l-786 -1208h632v255h156v-406h-1004z"/>
<glyph unicode="[" horiz-adv-x="819" vert-adv-y="2457" d="M287 -422v1897h362v-137h-183v-1618h183v-142h-362z"/>
<glyph unicode="\" horiz-adv-x="791" vert-adv-y="2457" d="M580 -188l-527 1683h132l527 -1683h-132z"/>
<glyph unicode="]" horiz-adv-x="819" vert-adv-y="2457" d="M170 -422v142h183v1618h-183v137h362v-1897h-362z"/>
<glyph unicode="^" vert-adv-y="2457" d="M573 1334l-329 -429h-185l430 570h169l430 -570h-185z"/>
<glyph unicode="_" horiz-adv-x="1024" vert-adv-y="2457" d="M-6 -422v151h1036v-151h-1036z"/>
<glyph unicode="`" horiz-adv-x="1024" vert-adv-y="2457" d="M525 1111l-279 348h195l208 -348h-124z"/>
<glyph unicode="a" horiz-adv-x="1175" vert-adv-y="2457" d="M847 0v151q-48 -57 -79 -83q-114 -97 -280 -97q-208 0 -337 146q-124 141 -124 368t124 367q129 146 337 146q160 0 269 -88q34 -28 78 -82v173l174 -1v-849h148v-151h-310zM514 847q-139 0 -226 -101q-84 -98 -84 -261q0 -153 74 -250q87 -113 237 -113q151 0 240 114 q80 102 80 244q0 154 -80 253q-92 114 -241 114z"/>
<glyph unicode="b" horiz-adv-x="1224" vert-adv-y="2457" d="M160 0v1324h-150v151h324v-647q43 52 74 78q110 92 273 92q208 0 337 -146q124 -140 124 -368q0 -227 -124 -367q-129 -146 -338 -146q-219 0 -359 181l-7 -152h-154zM654 847q-150 0 -240 -114q-80 -101 -80 -244q0 -151 80 -253q89 -114 241 -114q150 0 236 113 q74 97 74 250q0 164 -84 261q-88 101 -227 101z"/>
<glyph unicode="c" horiz-adv-x="1027" vert-adv-y="2457" d="M896 248l94 -121q-169 -156 -431 -156q-220 0 -344 124q-135 136 -135 379q0 238 123 380q124 144 334 144q149 0 259 -84v55h137v-332h-148v30q0 79 -40 117q-67 64 -187 64q-149 0 -228 -108q-73 -98 -73 -261q0 -176 94 -272q81 -84 221 -84q177 0 324 125z"/>
<glyph unicode="d" horiz-adv-x="1274" vert-adv-y="2457" d="M900 0v151q-48 -57 -79 -83q-114 -97 -280 -97q-208 0 -337 146q-124 141 -124 368t124 367q129 146 337 146q160 0 269 -88q34 -28 78 -82v496h-170v151h344v-1324h148v-151h-310zM567 847q-139 0 -226 -101q-84 -98 -84 -261q0 -153 74 -250q87 -113 237 -113 q151 0 240 114q80 102 80 244q0 154 -80 253q-92 114 -241 114z"/>
<glyph unicode="e" horiz-adv-x="1136" vert-adv-y="2457" d="M1060 435h-800q13 -107 51 -168q90 -145 282 -145q124 0 243 54q46 20 119 67l86 -130q-215 -143 -450 -143q-236 0 -376 147q-136 142 -136 368t134 368q135 145 361 145q185 0 309 -105q175 -147 177 -458zM875 574q-17 98 -59 157q-87 120 -245 120q-177 0 -260 -143 q-32 -56 -47 -134h611z"/>
<glyph unicode="f" horiz-adv-x="689" vert-adv-y="2457" d="M219 151v667h-154v151h154v116q0 187 65 279q80 111 264 111q82 0 161 -19v-145q-74 17 -140 17q-125 0 -158 -88q-18 -48 -18 -161v-110h244v-151h-244v-667h205v-151h-533v151h154z"/>
<glyph unicode="g" horiz-adv-x="1273" vert-adv-y="2457" d="M888 154q-45 -51 -77 -77q-109 -88 -269 -88q-209 0 -338 142q-124 137 -124 358t121 361q129 148 342 148q163 0 274 -92q36 -30 83 -88v151h324v-151h-162v-723q0 -252 -71 -367q-110 -180 -410 -180q-234 0 -333 93q-76 71 -82 220h163q8 -74 44 -111q57 -56 214 -56 q188 0 255 120q33 59 42 148q4 46 4 119v73zM567 847q-139 0 -226 -100q-84 -97 -84 -257q0 -148 74 -241q87 -109 237 -109t240 108q80 96 80 235q0 150 -80 250q-91 114 -241 114z"/>
<glyph unicode="h" horiz-adv-x="1267" vert-adv-y="2457" d="M218 151v1173h-150v151h324v-659q81 76 135 110q111 72 236 72q179 0 248 -130q34 -64 44 -165q5 -49 5 -142v-410h148v-151h-457v151h135v419q0 120 -20 177q-32 92 -148 92q-97 0 -203 -80q-40 -31 -123 -119v-489h140v-151h-464v151h150z"/>
<glyph unicode="i" horiz-adv-x="606" vert-adv-y="2457" d="M230 151v667h-151v151h325v-818h147v-151h-478v151h157zM216 1271v204h199v-204h-199z"/>
<glyph unicode="j" horiz-adv-x="581" vert-adv-y="2457" d="M68 818v151h327v-1002q0 -144 -27 -213q-46 -118 -180 -157q-51 -15 -138 -19v151q99 8 134 52q24 31 32 79q5 30 5 102v856h-153zM207 1271v204h199v-204h-199z"/>
<glyph unicode="k" horiz-adv-x="1085" vert-adv-y="2457" d="M216 151v1173h-151v151h325v-913l320 267h-122v140h437v-149h-113l-320 -272l397 -397h109v-151h-424v143h111l-395 401v-401h127v-143h-452v151h151z"/>
<glyph unicode="l" horiz-adv-x="603" vert-adv-y="2457" d="M227 151v1173h-151v151h325v-1324h147v-151h-478v151h157z"/>
<glyph unicode="m" horiz-adv-x="1834" vert-adv-y="2457" d="M225 151v667h-150v151h321v-156q89 86 130 114q105 71 214 71q132 0 199 -85q27 -35 52 -117q93 94 141 127q111 75 224 75q164 0 226 -130q45 -93 45 -307v-410h148v-151h-451v151h129v419q0 121 -17 176q-27 93 -126 93q-85 0 -181 -79q-32 -26 -116 -120v-489h143 v-151h-446v151h129v419q0 120 -17 176q-27 93 -126 93q-86 0 -181 -79q-43 -35 -116 -121v-488h134v-151h-458v151h150z"/>
<glyph unicode="n" horiz-adv-x="1274" vert-adv-y="2457" d="M225 151v667h-150v151h324v-156q92 83 140 114q111 71 233 71q178 0 247 -130q34 -65 44 -166q5 -48 5 -141v-410h148v-151h-457v151h135v419q0 120 -20 177q-33 92 -148 92q-97 0 -201 -79q-50 -38 -126 -121v-488h140v-151h-464v151h150z"/>
<glyph unicode="o" horiz-adv-x="1201" vert-adv-y="2457" d="M600 998q233 0 379 -146q141 -142 141 -367q0 -226 -141 -368q-145 -146 -378 -146q-235 0 -379 146q-142 143 -142 375q0 144 67 263q73 128 212 193q106 50 241 50zM600 847q-165 0 -262 -114q-81 -95 -81 -244q0 -157 81 -253q96 -114 263 -114q164 0 261 114 q81 96 81 249q0 154 -81 248q-99 114 -262 114z"/>
<glyph unicode="p" horiz-adv-x="1275" vert-adv-y="2457" d="M214 -271v1089h-149v151h310v-152q48 60 87 91q111 90 272 90q209 0 338 -146q124 -141 124 -368t-124 -367q-129 -146 -336 -146q-158 0 -271 92q-35 29 -77 78v-412h176v-151h-499v151h149zM708 847q-150 0 -240 -114q-80 -101 -80 -244q0 -151 80 -253 q89 -114 240 -114t237 113q74 97 74 250q0 165 -84 261q-88 101 -227 101z"/>
<glyph unicode="q" horiz-adv-x="1277" vert-adv-y="2457" d="M888 -271v412q-50 -58 -81 -83q-107 -87 -267 -87q-207 0 -336 146q-124 140 -124 367t124 368q129 146 339 146q214 0 357 -180v151h312v-151h-150v-1089h150v-151h-499v151h175zM567 847q-139 0 -226 -101q-84 -98 -84 -261q0 -153 74 -250q87 -113 237 -113 q151 0 240 114q80 102 80 244q0 154 -80 253q-92 114 -241 114z"/>
<glyph unicode="r" horiz-adv-x="817" vert-adv-y="2457" d="M225 151v667h-150v151h319v-160q81 102 143 139q86 50 200 50h41v-167h-37q-82 0 -131 -17q-79 -27 -150 -115q-16 -21 -61 -88v-460h155v-151h-479v151h150z"/>
<glyph unicode="s" horiz-adv-x="983" vert-adv-y="2457" d="M89 0v319h148v-34q0 -75 50 -112q80 -60 234 -60q105 0 162 37q61 39 61 117q0 66 -55 103q-27 18 -88 31q-17 4 -140 25q-133 22 -193 46q-173 67 -173 238q0 130 93 211q90 77 247 77q106 0 185 -36q30 -14 76 -46v53h137v-297h-148v18q0 69 -45 105q-73 60 -192 60 q-94 0 -140 -40q-42 -37 -42 -95q0 -62 65 -97q37 -20 186 -46q141 -24 199 -43q195 -65 195 -264q0 -146 -106 -227q-95 -72 -277 -72q-172 0 -302 82v-53h-137z"/>
<glyph unicode="t" horiz-adv-x="688" vert-adv-y="2457" d="M213 818h-154v151h154v357h174v-357h244v-151h-244v-500q0 -99 34 -135q30 -32 101 -32h121v-151h-127q-303 0 -303 291v527z"/>
<glyph unicode="u" horiz-adv-x="1215" vert-adv-y="2457" d="M206 818h-148v151h322v-570q0 -118 15 -168q27 -88 129 -88q89 0 189 74q39 29 120 113v488h-141v151h314v-818h150v-151h-323v156q-92 -79 -134 -106q-107 -66 -221 -66q-165 0 -227 126q-32 64 -41 161q-4 43 -4 137v410z"/>
<glyph unicode="v" horiz-adv-x="1060" vert-adv-y="2457" d="M125 818h-119v151h438v-151h-136l179 -464q19 -50 45 -143q32 108 46 144l180 463h-137v151h434v-151h-119l-346 -844h-126z"/>
<glyph unicode="w" horiz-adv-x="1610" vert-adv-y="2457" d="M131 818h-115v151h437v-151h-149l155 -433q25 -69 46 -150q26 90 51 157l215 577h71l212 -582q25 -69 48 -152q28 94 47 145l161 438h-154v151h435v-151h-112l-321 -842h-108l-208 580q-22 64 -39 131q-16 -66 -38 -128l-211 -583h-106z"/>
<glyph unicode="x" horiz-adv-x="1115" vert-adv-y="2457" d="M159 151l297 361l-251 306h-148v151h461v-136h-125l176 -232l189 232h-126v136h445v-151h-142l-275 -312l290 -355h145v-151h-483v142h146l-209 275l-213 -275h144v-142h-460v151h139z"/>
<glyph unicode="y" horiz-adv-x="1076" vert-adv-y="2457" d="M111 818h-103v151h460v-151h-175l210 -461q3 -7 48 -119q25 69 54 137l185 443h-169v151h455v-151h-109l-421 -965q-71 -162 -142 -216q-62 -48 -167 -56q-27 -2 -82 -3v151q98 1 137 23q53 31 97 136l73 173z"/>
<glyph unicode="z" horiz-adv-x="957" vert-adv-y="2457" d="M46 0v149l585 669h-384v-158h-151v309h760v-128l-599 -690h464v174h151v-325h-826z"/>
<glyph unicode="{" horiz-adv-x="819" vert-adv-y="2457" d="M297 561q106 -40 138 -110q34 -73 34 -238v-248q0 -163 45 -207q44 -44 159 -44h50v-136h-69q-138 0 -197 20q-104 34 -139 138q-23 70 -23 212v248q0 166 -44 227q-36 49 -100 62q-24 5 -75 7v138q81 4 119 22q66 31 85 109q15 59 15 166v179q0 147 24 218 q35 105 149 135q60 16 186 16h69v-136h-51q-116 0 -160 -45q-43 -43 -43 -205v-189q0 -156 -34 -228q-33 -72 -138 -111z"/>
<glyph unicode="|" horiz-adv-x="1024" vert-adv-y="2457" d="M425 -460v2026h171v-2026h-171z"/>
<glyph unicode="}" horiz-adv-x="819" vert-adv-y="2457" d="M522 561q-105 39 -138 111q-34 72 -34 228v189q0 162 -44 205q-44 45 -159 45h-51v136h69q141 0 203 -21q108 -37 138 -148q18 -68 18 -200v-179q0 -161 38 -221q33 -51 100 -67q25 -7 81 -9v-138q-78 -4 -112 -19q-68 -29 -90 -105q-17 -60 -17 -172v-248 q0 -158 -30 -230q-40 -97 -147 -125q-60 -15 -182 -15h-69v136h50q115 0 159 44q45 44 45 207v248q0 165 34 238q32 71 138 110z"/>
<glyph unicode="~" vert-adv-y="2457" d="M197 602l-96 110q56 64 98 98q89 72 185 72q94 0 203 -61l91 -50q39 -19 84 -19q87 0 190 120l94 -107q-143 -173 -280 -173q-86 0 -207 64q-57 30 -93 46q-41 19 -80 19q-62 0 -125 -53q-25 -22 -64 -66z"/>
<glyph unicode=" " horiz-adv-x="573" vert-adv-y="2457"/>
<glyph unicode="¡" horiz-adv-x="625" vert-adv-y="2457" d="M204 -209l23 1178h158l23 -1178h-204zM205 1161v215h204v-215h-204z"/>
<glyph unicode="¢" vert-adv-y="2457" d="M551 -26v311q-135 11 -232 76q-192 130 -192 423q0 316 225 454q79 49 199 66v304h118v-300q152 -6 336 -56v-289h-143v160q-73 23 -99 28q-36 7 -94 10v-730q93 12 162 42q56 25 130 81l87 -130q-103 -76 -198 -108q-77 -26 -181 -33v-309h-118zM551 437v716 q-255 -69 -255 -362q0 -300 255 -354z"/>
<glyph unicode="£" vert-adv-y="2457" d="M67 667v137h184q-44 177 -44 280q0 205 127 319q114 102 304 102q187 0 385 -74v-349h-156v220q-112 47 -226 47q-113 0 -181 -60q-82 -70 -82 -198q0 -92 49 -287h284v-137h-258q24 -138 24 -212q0 -85 -21 -151q-9 -26 -30 -74q164 -94 289 -94q136 0 212 101 q33 44 55 133l163 -25q-34 -154 -101 -234q-114 -135 -316 -135q-190 0 -379 123q-116 -117 -282 -123v170q113 27 170 99q63 79 63 234q0 70 -23 188h-210z"/>
<glyph unicode="¤" vert-adv-y="2457" d="M135 279l-90 94l196 194q-80 107 -80 242q0 133 79 241l-195 193l90 94l196 -196q111 81 243 81q135 0 243 -81l193 195l94 -93l-196 -193q79 -111 79 -241q0 -132 -80 -242l197 -194l-94 -93l-194 196q-115 -80 -242 -80q-129 0 -242 80zM574 1087q-118 0 -200 -85 q-78 -81 -78 -190q0 -115 78 -196q82 -85 201 -85q117 0 199 85q78 81 78 193q0 113 -78 193q-83 85 -200 85z"/>
<glyph unicode="¥" vert-adv-y="2457" d="M483 143v235h-348v119h348v116h-348v119h305l-329 592h-128v151h482v-151h-147l264 -489l263 489h-145v151h464v-151h-132l-325 -592h305v-119h-349v-116h349v-119h-349v-235h182v-143h-543v143h181z"/>
<glyph unicode="¦" horiz-adv-x="616" vert-adv-y="2457" d="M229 846v602h159v-602h-159zM229 0v603h159v-603h-159z"/>
<glyph unicode="§" vert-adv-y="2457" d="M252 -208v337h141v-194h126q188 0 188 110q0 85 -120 193l-257 232q-86 78 -122 126q-63 83 -63 173q0 142 126 208q50 26 127 37q-89 118 -89 225q0 141 139 198q94 38 295 38h164v-336h-136v194h-101q-194 0 -194 -105q0 -49 40 -101q41 -54 109 -118l223 -210 q180 -170 180 -319q0 -131 -107 -202q-48 -32 -117 -48q81 -105 81 -200q0 -238 -378 -238h-255zM763 648l-162 154q-45 43 -78 67q-49 34 -98 34q-55 0 -91 -35q-35 -34 -35 -84q0 -45 36 -92q16 -22 65 -69l172 -164q106 -102 182 -102q49 0 81 34q32 35 32 83 q0 76 -104 174z"/>
<glyph unicode="¨" horiz-adv-x="1024" vert-adv-y="2457" d="M249 1169v194h177v-194h-177zM597 1169v194h177v-194h-177z"/>
<glyph unicode="©" horiz-adv-x="1728" vert-adv-y="2457" d="M1157 1071v-223h-122v128q-79 28 -153 28q-122 0 -189 -84q-64 -79 -64 -196q0 -122 67 -196q63 -71 179 -71q132 0 256 90l71 -92q-151 -115 -321 -115q-188 0 -294 115q-95 104 -95 271q0 177 113 290q105 105 281 105q123 0 271 -50zM864 1521q324 0 549 -232 q220 -225 220 -552q0 -325 -220 -552q-224 -232 -548 -232q-328 0 -552 232q-219 226 -219 562q0 209 104 390q110 193 310 298q162 86 356 86zM864 1385q-269 0 -452 -195q-168 -180 -168 -444q0 -281 168 -462q182 -195 453 -195q268 0 450 195q168 181 168 453 q0 277 -168 453q-187 195 -451 195z"/>
<glyph unicode="ª" horiz-adv-x="769" vert-adv-y="2457" d="M508 854v68q-32 -33 -60 -49q-63 -36 -159 -36q-233 0 -233 197q0 127 95 173q59 29 189 29q35 0 146 -5v39q0 61 -35 88q-33 26 -112 26q-84 0 -188 -38l-47 118q119 42 244 42q177 0 243 -86q44 -57 44 -173v-270h89v-123h-216zM486 1123q-71 6 -134 6q-81 0 -110 -18 q-36 -23 -36 -74q0 -88 113 -88q98 0 146 58q21 25 21 69v47z"/>
<glyph unicode="«" horiz-adv-x="791" vert-adv-y="2457" d="M239 463l172 -345l-132 -57l-196 402l196 403l132 -59zM534 463l173 -345l-132 -57l-196 402l196 403l132 -59z"/>
<glyph unicode="¬" vert-adv-y="2457" d="M142 665v148h799v-528h-155v380h-644z"/>
<glyph unicode="­" horiz-adv-x="716" vert-adv-y="2457" d="M88 478v151h540v-151h-540z"/>
<glyph unicode="®" horiz-adv-x="1276" vert-adv-y="2457" d="M461 1028v355h-55v92h230q103 0 154 -24q81 -38 81 -135q0 -88 -81 -130q19 -21 36 -65l37 -93h60v-92h-148l-51 139q-16 44 -33 60q-19 16 -75 16h-45v-123h68v-92h-233v92h55zM571 1239h57q70 0 97 15q33 19 33 59q0 38 -30 55q-26 15 -94 15h-63v-144zM638 1774 q236 0 400 -169q160 -164 160 -402t-160 -403q-163 -169 -399 -169q-239 0 -402 169q-160 165 -160 410q0 152 76 284q80 141 226 218q118 62 259 62zM638 1666q-193 0 -324 -139q-121 -129 -121 -318q0 -201 121 -331q130 -139 325 -139q192 0 322 139q121 130 121 324 q0 199 -121 325q-134 139 -323 139z"/>
<glyph unicode="¯" horiz-adv-x="1024" vert-adv-y="2457" d="M247 1198v138h530v-138h-530z"/>
<glyph unicode="°" horiz-adv-x="722" vert-adv-y="2457" d="M361 1425q-98 0 -148 -71q-33 -46 -33 -117q0 -74 33 -122q49 -71 149 -71q99 0 148 71q33 47 33 120q0 72 -33 119q-49 71 -149 71zM359 1541q146 0 230 -94q74 -82 74 -210t-74 -211q-83 -94 -229 -94q-149 0 -232 94q-74 83 -74 214q0 126 74 207q85 94 231 94z"/>
<glyph unicode="±" vert-adv-y="2457" d="M142 707v153h356v376h153v-376h355v-153h-355v-375h-153v375h-356zM142 0v152h864v-152h-864z"/>
<glyph unicode="²" horiz-adv-x="737" vert-adv-y="2457" d="M45 819q8 76 19 107q25 72 113 163q44 46 197 179q110 95 110 182q0 51 -33 84q-37 39 -102 39q-91 0 -130 -89q-14 -31 -27 -103l-143 18q24 129 62 185q77 112 241 112q124 0 203 -60q83 -63 83 -182q0 -109 -67 -191q-46 -56 -162 -156q-123 -107 -164 -165h295v152 h132v-275h-627z"/>
<glyph unicode="³" horiz-adv-x="737" vert-adv-y="2457" d="M252 1211v116q93 0 136 11q108 29 108 120q0 49 -35 80q-38 34 -102 34q-80 0 -121 -56q-18 -25 -31 -76l-143 16q26 101 75 157q74 83 225 83q136 0 212 -68q69 -62 69 -168q0 -128 -121 -186q150 -64 150 -212q0 -128 -91 -198q-80 -61 -221 -61q-297 0 -313 265 l140 10q6 -56 36 -93q47 -57 137 -57q68 0 109 31q50 37 50 102q0 108 -128 138q-45 11 -141 12z"/>
<glyph unicode="´" horiz-adv-x="1024" vert-adv-y="2457" d="M375 1111l208 348h195l-279 -348h-124z"/>
<glyph unicode="¶" horiz-adv-x="1290" vert-adv-y="2457" d="M461 -271v928q-156 15 -245 79q-156 111 -156 328q0 192 125 306q76 69 180 92q62 14 173 14h604v-151h-123v-1596h176v-151h-882v151h148zM619 -271h242v1596h-242v-1596z"/>
<glyph unicode="·" horiz-adv-x="573" vert-adv-y="2457" d="M186 443v221h204v-221h-204z"/>
<glyph unicode="¸" horiz-adv-x="1024" vert-adv-y="2457" d="M489 0h119l-52 -94q86 -7 121 -24q97 -44 97 -158q0 -113 -87 -164q-64 -38 -171 -38t-247 39v138q154 -55 249 -55q111 0 111 79q0 54 -57 69q-26 7 -73 7q-12 0 -68 -4v93z"/>
<glyph unicode="¹" horiz-adv-x="737" vert-adv-y="2457" d="M306 942v590l-149 -62l-46 115l222 94h122v-737h148v-123h-451v123h154z"/>
<glyph unicode="º" horiz-adv-x="769" vert-adv-y="2457" d="M385 1506q156 0 249 -92q92 -91 92 -242t-92 -242q-93 -92 -248 -92q-158 0 -251 92q-92 91 -92 247q0 147 92 237q94 92 250 92zM384 1383q-93 0 -145 -68q-45 -58 -45 -140q0 -87 45 -146q52 -68 146 -68q93 0 145 68q45 59 45 143q0 86 -45 143q-53 68 -146 68z"/>
<glyph unicode="»" horiz-adv-x="791" vert-adv-y="2457" d="M551 463l-173 344l132 59l197 -403l-197 -402l-132 57zM255 463l-172 344l133 59l195 -403l-195 -402l-133 57z"/>
<glyph unicode="¼" horiz-adv-x="1761" vert-adv-y="2457" d="M314 738v590l-149 -62l-46 115l222 94h122v-737h148v-123h-451v123h154zM409 0l740 1475h152l-740 -1475h-152zM1385 0v189h-393v117l260 554h156l-261 -551h238v287h139v-287h125v-120h-125v-189h-139z"/>
<glyph unicode="½" horiz-adv-x="1761" vert-adv-y="2457" d="M294 738v590l-149 -62l-46 115l222 94h122v-737h148v-123h-451v123h154zM385 0l739 1475h152l-739 -1475h-152zM1020 0q7 75 19 107q25 71 113 163q42 45 197 179q110 95 110 182q0 51 -33 84q-37 39 -102 39q-91 0 -130 -89q-15 -34 -27 -103l-143 18q23 128 62 185 q77 112 242 112q123 0 202 -60q83 -63 83 -182q0 -109 -67 -191q-45 -55 -162 -156q-123 -107 -164 -165h295v152h132v-275h-627z"/>
<glyph unicode="¾" horiz-adv-x="1761" vert-adv-y="2457" d="M274 1007v116q24 -1 33 -1q86 0 135 23q76 35 76 108q0 49 -35 80q-38 34 -102 34q-81 0 -121 -55q-18 -26 -31 -76l-143 15q26 101 75 157q74 83 225 83q136 0 212 -68q69 -62 69 -168q0 -127 -121 -185q150 -64 150 -212q0 -129 -91 -199q-80 -61 -221 -61 q-297 0 -313 266l140 10q6 -57 36 -94q47 -57 137 -57q68 0 109 31q50 38 50 103q0 107 -128 138q-46 10 -141 12zM457 0l739 1475h152l-739 -1475h-152zM1406 0v189h-393v117l261 554h156l-262 -551h238v287h139v-287h125v-120h-125v-189h-139z"/>
<glyph unicode="¿" horiz-adv-x="1015" vert-adv-y="2457" d="M647 1376v-215h-204v215h204zM628 971v-505q-158 -1 -243 -45q-138 -71 -138 -236q0 -118 76 -195q78 -79 195 -79q138 0 213 112q41 61 60 188h165q-13 -109 -33 -169q-46 -130 -147 -206q-107 -80 -263 -80q-190 0 -314 117q-129 123 -129 321q0 181 122 292 q95 87 276 115v370h160z"/>
<glyph unicode="À" horiz-adv-x="1459" vert-adv-y="2457" d="M1043 434h-633l-104 -283h161v-151h-467v151h122l505 1324h198l509 -1324h126v-151h-473v151h162zM987 582l-264 714l-258 -714h522zM702 1588l-254 324h195l183 -324h-124z"/>
<glyph unicode="Á" horiz-adv-x="1459" vert-adv-y="2457" d="M1043 434h-633l-104 -283h161v-151h-467v151h122l505 1324h198l509 -1324h126v-151h-473v151h162zM987 582l-264 714l-258 -714h522zM641 1588l182 324h196l-254 -324h-124z"/>
<glyph unicode="Â" horiz-adv-x="1459" vert-adv-y="2457" d="M1043 434h-633l-104 -283h161v-151h-467v151h122l505 1324h198l509 -1324h126v-151h-473v151h162zM987 582l-264 714l-258 -714h522zM730 1801l-162 -213h-124l197 324h178l195 -324h-123z"/>
<glyph unicode="Ã" horiz-adv-x="1459" vert-adv-y="2457" d="M1043 434h-633l-104 -283h161v-151h-467v151h122l505 1324h198l509 -1324h126v-151h-473v151h162zM987 582l-264 714l-258 -714h522zM537 1644h-114q46 204 200 204q57 0 139 -45q73 -40 97 -40q53 0 87 84h114q-26 -93 -61 -140q-53 -69 -147 -69q-63 0 -172 61 q-41 23 -63 23q-48 0 -80 -78z"/>
<glyph unicode="Ä" horiz-adv-x="1459" vert-adv-y="2457" d="M1043 434h-633l-104 -283h161v-151h-467v151h122l505 1324h198l509 -1324h126v-151h-473v151h162zM987 582l-264 714l-258 -714h522zM451 1750v194h177v-194h-177zM832 1750v194h177v-194h-177z"/>
<glyph unicode="Å" horiz-adv-x="1459" vert-adv-y="2457" d="M1043 434h-633l-104 -283h161v-151h-467v151h122l505 1324h198l509 -1324h126v-151h-473v151h162zM987 582l-264 714l-258 -714h522zM731 2010q114 0 177 -70q56 -61 56 -159q0 -97 -56 -160q-62 -69 -177 -69q-116 0 -178 69q-56 62 -56 163q0 96 56 156q64 70 178 70z M730 1910q-120 0 -120 -127q0 -131 120 -131q121 0 121 129t-121 129z"/>
<glyph unicode="Æ" horiz-adv-x="1958" vert-adv-y="2457" d="M974 479h-530l-196 -328h183v-151h-515v151h145l675 1173h-136v151h1252v-367h-156v216h-542v-481h486v-151h-486v-541h552v257h156v-408h-1069v151h181v328zM974 625v699h-60l-395 -699h455z"/>
<glyph unicode="Ç" horiz-adv-x="1476" vert-adv-y="2457" d="M1263 348l114 -121q-113 -137 -256 -198q-127 -54 -303 -59l-36 -64q87 -8 122 -24q96 -44 96 -158q0 -113 -87 -164q-63 -38 -171 -38q-107 0 -247 39v138q154 -55 248 -55q112 0 112 79q0 54 -58 69q-25 7 -71 7q-14 0 -69 -4v93l44 86q-208 19 -343 120 q-266 198 -266 628q0 359 194 575q186 209 504 209q246 0 395 -115v84h148v-431h-155v27q0 101 -49 157t-145 90q-84 30 -192 30q-254 0 -391 -187q-125 -170 -125 -436q0 -273 141 -439q132 -155 386 -155q179 0 316 86q48 29 144 131z"/>
<glyph unicode="È" horiz-adv-x="1211" vert-adv-y="2457" d="M226 151v1173h-144v151h1022v-359h-156v208h-542v-481h486v-151h-486v-541h552v249h156v-400h-1032v151h144zM630 1588l-254 324h195l183 -324h-124z"/>
<glyph unicode="É" horiz-adv-x="1211" vert-adv-y="2457" d="M226 151v1173h-144v151h1022v-359h-156v208h-542v-481h486v-151h-486v-541h552v249h156v-400h-1032v151h144zM528 1588l182 324h195l-254 -324h-123z"/>
<glyph unicode="Ê" horiz-adv-x="1211" vert-adv-y="2457" d="M226 151v1173h-144v151h1022v-359h-156v208h-542v-481h486v-151h-486v-541h552v249h156v-400h-1032v151h144zM638 1801l-163 -213h-123l197 324h177l196 -324h-123z"/>
<glyph unicode="Ë" horiz-adv-x="1211" vert-adv-y="2457" d="M226 151v1173h-144v151h1022v-359h-156v208h-542v-481h486v-151h-486v-541h552v249h156v-400h-1032v151h144zM333 1646v194h177v-194h-177zM714 1646v194h177v-194h-177z"/>
<glyph unicode="Ì" horiz-adv-x="639" vert-adv-y="2457" d="M229 151v1173h-144v151h468v-151h-144v-1173h144v-151h-468v151h144zM310 1588l-254 324h195l183 -324h-124z"/>
<glyph unicode="Í" horiz-adv-x="639" vert-adv-y="2457" d="M229 151v1173h-144v151h469v-151h-145v-1173h145v-151h-469v151h144zM217 1588l183 324h195l-254 -324h-124z"/>
<glyph unicode="Î" horiz-adv-x="639" vert-adv-y="2457" d="M229 151v1173h-145v151h469v-151h-144v-1173h144v-151h-469v151h145zM319 1801l-162 -213h-124l197 324h178l195 -324h-123z"/>
<glyph unicode="Ï" horiz-adv-x="639" vert-adv-y="2457" d="M229 151v1173h-144v151h469v-151h-145v-1173h145v-151h-469v151h144zM40 1646v194h177v-194h-177zM421 1646v194h177v-194h-177z"/>
<glyph unicode="Ð" horiz-adv-x="1467" vert-adv-y="2457" d="M227 151v560h-217v137h217v476h-145v151h503q348 0 553 -168q237 -196 237 -570q0 -373 -237 -569q-205 -168 -553 -168h-503v151h145zM407 151h167q271 0 431 130q186 151 186 456t-186 457q-159 130 -431 130h-167v-476h401v-137h-401v-560z"/>
<glyph unicode="Ñ" horiz-adv-x="1456" vert-adv-y="2457" d="M226 151v1173h-144v151h345l558 -947q19 -32 87 -172q-5 126 -5 195v773h-153v151h465v-151h-144v-1348h-125l-647 1110q-10 18 -75 152q6 -131 6 -157v-930h150v-151h-462v151h144zM523 1644h-113q46 204 200 204q57 0 139 -45q73 -40 97 -40q52 0 87 84h114 q-26 -93 -61 -140q-54 -69 -148 -69q-62 0 -172 61q-41 23 -63 23q-47 0 -80 -78z"/>
<glyph unicode="Ò" horiz-adv-x="1714" vert-adv-y="2457" d="M857 1506q234 0 423 -124q188 -123 277 -327q64 -148 64 -317q0 -299 -191 -515q-113 -128 -267 -193q-143 -61 -305 -61q-351 0 -575 254q-191 216 -191 524q0 192 90 361q105 199 308 309q166 89 367 89zM857 1348q-256 0 -425 -183q-156 -170 -156 -419 q0 -265 156 -435q169 -184 426 -184q254 0 423 184q156 170 156 427q0 261 -156 427q-174 183 -424 183zM869 1588l-254 324h196l182 -324h-124z"/>
<glyph unicode="Ó" horiz-adv-x="1714" vert-adv-y="2457" d="M857 1506q234 0 423 -124q188 -123 277 -327q64 -148 64 -317q0 -299 -191 -515q-113 -128 -267 -193q-143 -61 -305 -61q-351 0 -575 254q-191 216 -191 524q0 192 90 361q105 199 308 309q166 89 367 89zM857 1348q-256 0 -425 -183q-156 -170 -156 -419 q0 -265 156 -435q169 -184 426 -184q254 0 423 184q156 170 156 427q0 261 -156 427q-174 183 -424 183zM719 1588l183 324h195l-254 -324h-124z"/>
<glyph unicode="Ô" horiz-adv-x="1714" vert-adv-y="2457" d="M857 1506q234 0 423 -124q188 -123 277 -327q64 -148 64 -317q0 -299 -191 -515q-113 -128 -267 -193q-143 -61 -305 -61q-351 0 -575 254q-191 216 -191 524q0 192 90 361q105 199 308 309q166 89 367 89zM857 1348q-256 0 -425 -183q-156 -170 -156 -419 q0 -265 156 -435q169 -184 426 -184q254 0 423 184q156 170 156 427q0 261 -156 427q-174 183 -424 183zM856 1801l-162 -213h-124l197 324h178l196 -324h-123z"/>
<glyph unicode="Õ" horiz-adv-x="1714" vert-adv-y="2457" d="M857 1506q234 0 423 -124q188 -123 277 -327q64 -148 64 -317q0 -299 -191 -515q-113 -128 -267 -193q-143 -61 -305 -61q-351 0 -575 254q-191 216 -191 524q0 192 90 361q105 199 308 309q166 89 367 89zM857 1348q-256 0 -425 -183q-156 -170 -156 -419 q0 -265 156 -435q169 -184 426 -184q254 0 423 184q156 170 156 427q0 261 -156 427q-174 183 -424 183zM663 1644h-113q45 204 200 204q57 0 138 -45q74 -40 97 -40q52 0 88 84h113q-25 -93 -61 -140q-53 -69 -147 -69q-62 0 -172 61q-41 23 -63 23q-48 0 -80 -78z"/>
<glyph unicode="Ö" horiz-adv-x="1714" vert-adv-y="2457" d="M857 1506q234 0 423 -124q188 -123 277 -327q64 -148 64 -317q0 -299 -191 -515q-113 -128 -267 -193q-143 -61 -305 -61q-351 0 -575 254q-191 216 -191 524q0 192 90 361q105 199 308 309q166 89 367 89zM857 1348q-256 0 -425 -183q-156 -170 -156 -419 q0 -265 156 -435q169 -184 426 -184q254 0 423 184q156 170 156 427q0 261 -156 427q-174 183 -424 183zM577 1750v194h177v-194h-177zM958 1750v194h177v-194h-177z"/>
<glyph unicode="×" vert-adv-y="2457" d="M466 736l-290 290l108 108l290 -290l290 290l108 -108l-290 -290l290 -289l-108 -108l-290 290l-290 -290l-108 108z"/>
<glyph unicode="Ø" horiz-adv-x="1714" vert-adv-y="2457" d="M305 184q-226 231 -226 557q0 296 191 512q113 128 268 193q142 61 305 61q242 0 436 -132l144 177h174l-213 -261q70 -75 110 -138q114 -183 114 -416q0 -298 -191 -514q-224 -254 -575 -254q-182 0 -338 77q-40 20 -93 54l-157 -192h-174zM415 318l759 929 q-154 102 -329 102q-257 0 -426 -184q-156 -170 -156 -427q0 -255 152 -420zM1273 1156l-757 -928q161 -101 327 -101q256 0 425 184q156 170 156 427q0 170 -67 294q-22 42 -84 124z"/>
<glyph unicode="Ù" horiz-adv-x="1436" vert-adv-y="2457" d="M72 1324v151h475v-151h-151v-758q0 -200 49 -295q73 -141 273 -141t273 141q49 95 49 295v758h-151v151h475v-151h-144v-701q0 -214 -24 -323q-35 -161 -158 -247q-122 -84 -320 -84q-306 0 -425 196q-54 88 -69 234q-8 74 -8 224v701h-144zM720 1588l-254 324h196 l182 -324h-124z"/>
<glyph unicode="Ú" horiz-adv-x="1436" vert-adv-y="2457" d="M72 1324v151h475v-151h-151v-758q0 -200 49 -295q73 -141 273 -141t273 141q49 95 49 295v758h-151v151h475v-151h-144v-701q0 -214 -24 -323q-35 -161 -158 -247q-122 -84 -320 -84q-306 0 -425 196q-54 88 -69 234q-8 74 -8 224v701h-144zM626 1588l182 324h196 l-254 -324h-124z"/>
<glyph unicode="Û" horiz-adv-x="1436" vert-adv-y="2457" d="M72 1324v151h475v-151h-151v-758q0 -200 49 -295q73 -141 273 -141t273 141q49 95 49 295v758h-151v151h475v-151h-144v-701q0 -214 -24 -323q-35 -161 -158 -247q-122 -84 -320 -84q-306 0 -425 196q-54 88 -69 234q-8 74 -8 224v701h-144zM730 1801l-162 -213h-124 l197 324h178l195 -324h-123z"/>
<glyph unicode="Ü" horiz-adv-x="1436" vert-adv-y="2457" d="M72 1324v151h475v-151h-151v-758q0 -200 49 -295q73 -141 273 -141t273 141q49 95 49 295v758h-151v151h475v-151h-144v-701q0 -214 -24 -323q-35 -161 -158 -247q-122 -84 -320 -84q-306 0 -425 196q-54 88 -69 234q-8 74 -8 224v701h-144zM439 1750v194h177v-194h-177z M820 1750v194h177v-194h-177z"/>
<glyph unicode="Ý" horiz-adv-x="1153" vert-adv-y="2457" d="M484 151v520l-372 653h-128v151h482v-151h-147l264 -489l263 489h-145v151h463v-151h-132l-368 -655v-518h181v-151h-542v151h181zM510 1588l182 324h195l-254 -324h-123z"/>
<glyph unicode="Þ" horiz-adv-x="1238" vert-adv-y="2457" d="M226 151v1173h-144v151h467v-151h-143v-119h168q157 0 259 -18q177 -31 265 -149q79 -105 79 -265q0 -156 -77 -259q-84 -113 -267 -147q-117 -21 -258 -21h-169v-195h166v-151h-490v151h144zM406 489h175q208 0 302 65q110 75 110 222t-111 221q-93 62 -297 62h-179 v-570z"/>
<glyph unicode="ß" horiz-adv-x="1301" vert-adv-y="2457" d="M225 151v667h-150v151h150v104q0 214 122 323q122 108 318 108q197 0 315 -100q110 -94 110 -252q0 -209 -199 -291q104 -24 182 -91q144 -123 144 -342q0 -227 -136 -353q-112 -104 -310 -104q-79 0 -165 16l26 151q65 -15 127 -15q147 0 222 104q59 81 59 213 q0 196 -147 282q-63 36 -162 44q-29 3 -88 4v143q114 6 174 42q102 61 102 183q0 105 -71 162q-72 59 -182 59q-155 0 -222 -106q-45 -71 -45 -195v-907h120v-151h-444v151h150z"/>
<glyph unicode="à" horiz-adv-x="1175" vert-adv-y="2457" d="M590 1128l-279 348h195l208 -348h-124zM847 0v151q-48 -57 -79 -83q-114 -97 -280 -97q-208 0 -337 146q-124 141 -124 368t124 367q129 146 337 146q160 0 269 -88q34 -28 78 -82v173l174 -1v-849h148v-151h-310zM514 847q-139 0 -226 -101q-84 -98 -84 -261 q0 -153 74 -250q87 -113 237 -113q151 0 240 114q80 102 80 244q0 154 -80 253q-92 114 -241 114z"/>
<glyph unicode="á" horiz-adv-x="1175" vert-adv-y="2457" d="M460 1127l208 348h195l-279 -348h-124zM847 0v151q-48 -57 -79 -83q-114 -97 -280 -97q-208 0 -337 146q-124 141 -124 368t124 367q129 146 337 146q160 0 269 -88q34 -28 78 -82v173l174 -1v-849h148v-151h-310zM514 847q-139 0 -226 -101q-84 -98 -84 -261 q0 -153 74 -250q87 -113 237 -113q151 0 240 114q80 102 80 244q0 154 -80 253q-92 114 -241 114z"/>
<glyph unicode="â" horiz-adv-x="1175" vert-adv-y="2457" d="M553 1365l-174 -237h-124l209 348h178l208 -348h-123zM847 0v151q-48 -57 -79 -83q-114 -97 -280 -97q-208 0 -337 146q-124 141 -124 368t124 367q129 146 337 146q160 0 269 -88q34 -28 78 -82v173l174 -1v-849h148v-151h-310zM514 847q-139 0 -226 -101 q-84 -98 -84 -261q0 -153 74 -250q87 -113 237 -113q151 0 240 114q80 102 80 244q0 154 -80 253q-92 114 -241 114z"/>
<glyph unicode="ã" horiz-adv-x="1175" vert-adv-y="2457" d="M847 0v151q-40 -48 -79.5 -82t-82 -56t-91 -32t-106.5 -10q-102 0 -187 37t-145.5 104.5t-94.5 162.5t-34 210t34 209.5t95 162t145.5 104.5t186.5 37q56 0 103.5 -9.5t89.5 -30.5t80 -53t74 -77v173h174v-850h148v-151h-310zM514 847q-68 0 -125 -25.5t-98 -72.5 t-64 -114t-23 -150t22.5 -150.5t64 -114.5t98.5 -72.5t126 -25.5q71 0 130 28t101 76t65.5 113.5t23.5 140.5q0 83 -24.5 151t-67.5 116t-102 74t-127 26zM351 1226h-108q44 205 192 205q54 0 133 -45q72 -40 94 -40q50 0 85 84h108q-26 -95 -59 -140q-51 -70 -141 -70 q-43 0 -83 18q-34 16 -83 44q-39 23 -61 23q-46 0 -77 -79z"/>
<glyph unicode="ä" horiz-adv-x="1175" vert-adv-y="2457" d="M311 1281v194h177v-194h-177zM659 1281v194h177v-194h-177zM847 0v151q-48 -57 -79 -83q-114 -97 -280 -97q-208 0 -337 146q-124 141 -124 368t124 367q129 146 337 146q160 0 269 -88q34 -28 78 -82v173l174 -1v-849h148v-151h-310zM514 847q-139 0 -226 -101 q-84 -98 -84 -261q0 -153 74 -250q87 -113 237 -113q151 0 240 114q80 102 80 244q0 154 -80 253q-92 114 -241 114z"/>
<glyph unicode="å" horiz-adv-x="1175" vert-adv-y="2457" d="M570 1578q115 0 178 -69q56 -62 56 -159q0 -98 -56 -160q-63 -69 -177 -69q-117 0 -179 69q-56 62 -56 163q0 95 56 156q64 69 178 69zM570 1478q-121 0 -121 -127q0 -130 121 -130t121 129q0 128 -121 128zM847 0v151q-48 -57 -79 -83q-114 -97 -280 -97 q-208 0 -337 146q-124 141 -124 368t124 367q129 146 337 146q160 0 269 -88q34 -28 78 -82v173l174 -1v-849h148v-151h-310zM514 847q-139 0 -226 -101q-84 -98 -84 -261q0 -153 74 -250q87 -113 237 -113q151 0 240 114q80 102 80 244q0 154 -80 253q-92 114 -241 114z "/>
<glyph unicode="æ" horiz-adv-x="1843" vert-adv-y="2457" d="M792 582v47q0 107 -45 155q-62 68 -214 68q-119 0 -166 -44q-31 -30 -40 -106h-160q7 150 80 218q85 78 282 78q308 0 376 -190q142 189 382 189q197 0 324 -119q155 -146 156 -443h-799q12 -106 51 -168q89 -145 282 -145q123 0 243 54q47 21 118 67l87 -130 q-211 -143 -442 -143q-278 0 -408 217q-46 -78 -117 -126q-134 -90 -335 -90q-372 0 -372 305q0 193 145 270q90 47 300 47q74 0 272 -11zM795 445q-113 12 -267 12q-155 0 -209 -33q-69 -42 -69 -141q0 -83 50 -122q54 -42 174 -42q199 0 279 99q42 51 42 141v86zM1583 574 q-16 94 -59 155q-87 121 -246 121q-175 0 -258 -141q-34 -56 -48 -135h611z"/>
<glyph unicode="ç" horiz-adv-x="1027" vert-adv-y="2457" d="M896 248l94 -121q-158 -145 -396 -155l-37 -66q86 -7 122 -23q96 -45 96 -159q0 -112 -87 -164q-64 -38 -171 -38t-247 39v139q150 -56 248 -56q112 0 112 79q0 54 -57 69q-26 7 -72 7q-18 0 -69 -4v93l45 88q-128 18 -211 76q-186 131 -186 422q0 238 123 380 q124 144 334 144q149 0 259 -84v55h137v-332h-148v30q0 79 -40 117q-67 64 -187 64q-149 0 -228 -108q-73 -98 -73 -262q0 -175 94 -272q81 -84 221 -84q177 0 324 126z"/>
<glyph unicode="è" horiz-adv-x="1136" vert-adv-y="2457" d="M1060 435h-800q13 -107 51 -168q90 -145 282 -145q124 0 243 54q46 20 119 67l86 -130q-215 -143 -450 -143q-236 0 -376 147q-136 142 -136 368t134 368q135 145 361 145q185 0 309 -105q175 -147 177 -458zM875 574q-17 98 -59 157q-87 120 -245 120q-177 0 -260 -143 q-32 -56 -47 -134h611zM591 1111l-279 348h196l207 -348h-124z"/>
<glyph unicode="é" horiz-adv-x="1136" vert-adv-y="2457" d="M1060 435h-800q13 -107 51 -168q90 -145 282 -145q124 0 243 54q46 20 119 67l86 -130q-215 -143 -450 -143q-236 0 -376 147q-136 142 -136 368t134 368q135 145 361 145q185 0 309 -105q175 -147 177 -458zM875 574q-17 98 -59 157q-87 120 -245 120q-177 0 -260 -143 q-32 -56 -47 -134h611zM454 1111l208 348h196l-280 -348h-124z"/>
<glyph unicode="ê" horiz-adv-x="1136" vert-adv-y="2457" d="M1060 435h-800q13 -107 51 -168q90 -145 282 -145q124 0 243 54q46 20 119 67l86 -130q-215 -143 -450 -143q-236 0 -376 147q-136 142 -136 368t134 368q135 145 361 145q185 0 309 -105q175 -147 177 -458zM875 574q-17 98 -59 157q-87 120 -245 120q-177 0 -260 -143 q-32 -56 -47 -134h611zM580 1348l-174 -237h-124l210 348h177l209 -348h-124z"/>
<glyph unicode="ë" horiz-adv-x="1137" vert-adv-y="2457" d="M1060 435h-800q13 -106 51 -168q90 -145 282 -145q124 0 243 54q48 21 119 67l86 -130q-91 -61 -159 -87q-143 -56 -291 -56q-235 0 -376 147q-136 143 -136 368q0 226 134 368q135 145 361 145q185 0 310 -105q174 -147 176 -458zM875 574q-15 96 -60 157 q-85 120 -244 120q-177 0 -260 -143q-33 -57 -47 -134h611zM312 1169v194h177v-194h-177zM660 1169v194h177v-194h-177z"/>
<glyph unicode="ì" horiz-adv-x="606" vert-adv-y="2457" d="M253 1597l-279 348h195l208 -348h-124zM230 151v667h-151v151h325v-818h147v-151h-478v151h157zM216 1271v204h199v-204h-199z"/>
<glyph unicode="í" horiz-adv-x="606" vert-adv-y="0" d="M253 1597l208 348h195l-279 -348h-124zM230 151v667h-151v151h325v-818h147v-151h-478v151h157zM216 1271v204h199v-204h-199z"/>
<glyph unicode="î" horiz-adv-x="606" vert-adv-y="0" d="M316 1834l-174 -237h-124l210 348h177l209 -348h-124zM230 151v667h-151v151h325v-818h147v-151h-478v151h157zM216 1271v204h199v-204h-199z"/>
<glyph unicode="ï" horiz-adv-x="606" vert-adv-y="0" d="M53 1597v194h177v-194h-177zM401 1597v194h177v-194h-177zM230 151v667h-151v151h325v-818h147v-151h-478v151h157zM216 1271v204h199v-204h-199z"/>
<glyph unicode="ð" horiz-adv-x="1200" vert-adv-y="0" d="M362 1082l-58 83l216 146l-154 137l97 94q118 -93 181 -152l227 152l59 -84l-209 -140q400 -391 400 -823q0 -240 -142 -380q-145 -144 -379 -144t-378 144q-142 140 -142 361t142 364q141 142 356 142q134 0 219 -59q31 -22 79 -72q-115 226 -279 388zM599 836 q-164 0 -261 -112q-81 -95 -81 -245t81 -245q97 -112 262 -112q166 0 262 112q82 95 82 243q0 158 -80 247q-101 112 -265 112z"/>
<glyph unicode="ñ" horiz-adv-x="1274" vert-adv-y="2457" d="M225 151v667h-150v151h324v-156q92 83 140 114q111 71 233 71q178 0 247 -130q34 -65 44 -166q5 -48 5 -141v-410h148v-151h-457v151h135v419q0 120 -20 177q-33 92 -148 92q-97 0 -201 -79q-50 -38 -126 -121v-488h140v-151h-464v151h150zM420 1166h-108q44 205 192 205 q54 0 134 -45q71 -40 93 -40q51 0 85 84h108q-26 -95 -59 -140q-51 -70 -141 -70q-60 0 -165 62q-40 23 -61 23q-46 0 -78 -79z"/>
<glyph unicode="ò" horiz-adv-x="1201" vert-adv-y="2457" d="M600 998q233 0 379 -146q141 -142 141 -367q0 -226 -141 -368q-145 -146 -378 -146q-235 0 -379 146q-142 143 -142 375q0 144 67 263q73 128 212 193q106 50 241 50zM600 847q-165 0 -262 -114q-81 -95 -81 -244q0 -157 81 -253q96 -114 263 -114q164 0 261 114 q81 96 81 249q0 154 -81 248q-99 114 -262 114zM613 1111l-279 348h196l207 -348h-124z"/>
<glyph unicode="ó" horiz-adv-x="1201" vert-adv-y="2457" d="M600 998q233 0 379 -146q141 -142 141 -367q0 -226 -141 -368q-145 -146 -378 -146q-235 0 -379 146q-142 143 -142 375q0 144 67 263q73 128 212 193q106 50 241 50zM600 847q-165 0 -262 -114q-81 -95 -81 -244q0 -157 81 -253q96 -114 263 -114q164 0 261 114 q81 96 81 249q0 154 -81 248q-99 114 -262 114zM463 1111l208 348h195l-279 -348h-124z"/>
<glyph unicode="ô" horiz-adv-x="1201" vert-adv-y="2457" d="M600 998q233 0 379 -146q141 -142 141 -367q0 -226 -141 -368q-145 -146 -378 -146q-235 0 -379 146q-142 143 -142 375q0 144 67 263q73 128 212 193q106 50 241 50zM600 847q-165 0 -262 -114q-81 -95 -81 -244q0 -157 81 -253q96 -114 263 -114q164 0 261 114 q81 96 81 249q0 154 -81 248q-99 114 -262 114zM600 1348l-175 -237h-123l209 348h178l208 -348h-123z"/>
<glyph unicode="õ" horiz-adv-x="1201" vert-adv-y="2457" d="M600 998q233 0 379 -146q141 -142 141 -367q0 -226 -141 -368q-145 -146 -378 -146q-235 0 -379 146q-142 143 -142 375q0 144 67 263q73 128 212 193q106 50 241 50zM600 847q-165 0 -262 -114q-81 -95 -81 -244q0 -157 81 -253q96 -114 263 -114q164 0 261 114 q81 96 81 249q0 154 -81 248q-99 114 -262 114zM401 1166h-107q44 205 192 205q53 0 133 -45q71 -40 93 -40q51 0 85 84h108q-25 -95 -59 -140q-51 -70 -140 -70q-60 0 -166 62q-39 23 -61 23q-47 0 -78 -79z"/>
<glyph unicode="ö" horiz-adv-x="1201" vert-adv-y="2457" d="M600 998q233 0 379 -146q141 -142 141 -367q0 -226 -141 -368q-145 -146 -378 -146q-235 0 -379 146q-142 143 -142 375q0 144 67 263q73 128 212 193q106 50 241 50zM600 847q-165 0 -262 -114q-81 -95 -81 -244q0 -157 81 -253q96 -114 263 -114q164 0 261 114 q81 96 81 249q0 154 -81 248q-99 114 -262 114zM338 1281v194h177v-194h-177zM686 1281v194h177v-194h-177z"/>
<glyph unicode="÷" vert-adv-y="2457" d="M142 661v152h864v-152h-864zM478 994v208h191v-208h-191zM478 275v208h191v-208h-191z"/>
<glyph unicode="ø" horiz-adv-x="1201" vert-adv-y="2457" d="M219 110q-148 154 -148 376q0 224 142 366q145 146 378 146q153 0 278 -69l79 99h153l-135 -171q146 -150 146 -373q0 -224 -142 -367q-144 -146 -378 -146q-143 0 -275 67l-95 -120h-154zM327 246l441 556q-88 45 -175 45q-167 0 -264 -114q-81 -96 -81 -246 q0 -135 79 -241zM858 721l-441 -555q39 -17 59 -24q50 -20 115 -20q167 0 263 114q81 96 81 245q0 129 -77 240z"/>
<glyph unicode="ù" horiz-adv-x="1215" vert-adv-y="2457" d="M206 818h-148v151h322v-570q0 -118 15 -168q27 -88 129 -88q89 0 189 74q39 29 120 113v488h-141v151h314v-818h150v-151h-323v156q-92 -79 -134 -106q-107 -66 -221 -66q-165 0 -227 126q-32 64 -41 161q-4 43 -4 137v410zM598 1111l-279 348h196l207 -348h-124z"/>
<glyph unicode="ú" horiz-adv-x="1215" vert-adv-y="2457" d="M206 818h-148v151h322v-570q0 -118 15 -168q27 -88 129 -88q89 0 189 74q39 29 120 113v488h-141v151h314v-818h150v-151h-323v156q-92 -79 -134 -106q-107 -66 -221 -66q-165 0 -227 126q-32 64 -41 161q-4 43 -4 137v410zM470 1111l208 348h195l-279 -348h-124z"/>
<glyph unicode="û" horiz-adv-x="1215" vert-adv-y="2457" d="M206 818h-148v151h322v-570q0 -118 15 -168q27 -88 129 -88q89 0 189 74q39 29 120 113v488h-141v151h314v-818h150v-151h-323v156q-92 -79 -134 -106q-107 -66 -221 -66q-165 0 -227 126q-32 64 -41 161q-4 43 -4 137v410zM607 1348l-174 -237h-124l209 348h178 l208 -348h-123z"/>
<glyph unicode="ü" horiz-adv-x="1215" vert-adv-y="2457" d="M206 818h-148v151h322v-570q0 -118 15 -168q27 -88 129 -88q89 0 189 74q39 29 120 113v488h-141v151h314v-818h150v-151h-323v156q-92 -79 -134 -106q-107 -66 -221 -66q-165 0 -227 126q-32 64 -41 161q-4 43 -4 137v410zM327 1282v194h177v-194h-177zM675 1282v194 h177v-194h-177z"/>
<glyph unicode="ý" horiz-adv-x="1076" vert-adv-y="2457" d="M111 818h-103v151h460v-151h-175l210 -461q3 -7 48 -119q25 69 54 137l185 443h-169v151h455v-151h-109l-421 -965q-71 -162 -142 -216q-62 -48 -167 -56q-27 -2 -82 -3v151q98 1 137 23q53 31 97 136l73 173zM461 1111l208 348h195l-279 -348h-124z"/>
<glyph unicode="þ" horiz-adv-x="1295" vert-adv-y="2457" d="M208 -271v1595h-151v151h325v-647q67 68 94 90q102 80 265 80q213 0 345 -146q128 -141 128 -367q0 -227 -128 -368q-132 -146 -347 -146q-155 0 -269 88q-38 29 -88 82v-412h164v-151h-487v151h149zM713 847q-155 0 -249 -114q-83 -100 -83 -244q0 -153 83 -253 q94 -114 250 -114q155 0 246 113q77 96 77 250q0 165 -88 261q-91 101 -236 101z"/>
<glyph unicode="ÿ" horiz-adv-x="1076" vert-adv-y="2457" d="M111 818h-103v151h460v-151h-175l210 -461q3 -7 48 -119q25 69 54 137l185 443h-169v151h455v-151h-109l-421 -965q-71 -162 -142 -216q-62 -48 -167 -56q-27 -2 -82 -3v151q98 1 137 23q53 31 97 136l73 173zM294 1169v194h177v-194h-177zM643 1169v194h177v-194h-177z "/>
<glyph unicode="Œ" horiz-adv-x="2088" vert-adv-y="2457" d="M1284 151h552v257h156v-408h-712q-61 0 -178 -7q-158 -10 -228 -10q-356 0 -553 178q-235 211 -235 578q0 368 247 580q107 92 236 133q126 40 300 40q71 0 228 -10q120 -7 196 -7h689v-367h-156v216h-542v-481h486v-151h-486v-541zM1104 150v1174q-116 15 -223 15 q-283 0 -450 -163q-161 -156 -161 -434q0 -313 200 -475q163 -131 421 -131q85 0 213 14z"/>
<glyph unicode="œ" horiz-adv-x="2001" vert-adv-y="2457" d="M1031 229q-46 -82 -90 -126q-130 -132 -350 -132q-229 0 -372 146q-139 142 -139 368q0 225 139 367q143 146 372 146q219 0 348 -130q46 -47 91 -126q40 77 85 126q122 130 331 130q185 0 310 -109q167 -147 168 -454h-799q12 -106 50 -168q90 -145 282 -145 q124 0 244 54q47 21 118 67l87 -130q-89 -60 -158 -87q-139 -56 -285 -56q-302 0 -432 259zM599 847q-164 0 -261 -114q-81 -95 -81 -249q0 -152 81 -248q96 -114 262 -114q165 0 262 114q81 96 81 244q0 159 -81 253q-99 114 -263 114zM1740 574q-16 93 -57 152 q-87 125 -248 125q-176 0 -259 -143q-33 -57 -47 -134h611z"/>
<glyph unicode="Ÿ" horiz-adv-x="1153" vert-adv-y="2457" d="M484 151v520l-372 653h-128v151h482v-151h-147l264 -489l263 489h-145v151h463v-151h-132l-368 -655v-518h181v-151h-542v151h181zM313 1646v194h177v-194h-177zM694 1646v194h177v-194h-177z"/>
<glyph unicode="ˆ" horiz-adv-x="1024" vert-adv-y="2457" d="M512 1348l-174 -237h-124l210 348h177l209 -348h-124z"/>
<glyph unicode="˜" horiz-adv-x="1024" vert-adv-y="2457" d="M314 1166h-108q44 205 192 205q53 0 133 -45q72 -40 94 -40q50 0 84 84h109q-26 -95 -59 -140q-51 -70 -141 -70q-60 0 -166 62q-39 23 -61 23q-47 0 -77 -79z"/>
<glyph unicode=" " horiz-adv-x="1005" vert-adv-y="0"/>
<glyph unicode=" " horiz-adv-x="2010" vert-adv-y="0"/>
<glyph unicode=" " horiz-adv-x="1005" vert-adv-y="0"/>
<glyph unicode=" " horiz-adv-x="2010" vert-adv-y="0"/>
<glyph unicode=" " horiz-adv-x="670" vert-adv-y="0"/>
<glyph unicode=" " horiz-adv-x="502" vert-adv-y="0"/>
<glyph unicode=" " horiz-adv-x="335" vert-adv-y="0"/>
<glyph unicode=" " horiz-adv-x="335" vert-adv-y="0"/>
<glyph unicode=" " horiz-adv-x="251" vert-adv-y="0"/>
<glyph unicode=" " horiz-adv-x="402" vert-adv-y="0"/>
<glyph unicode=" " horiz-adv-x="111" vert-adv-y="0"/>
<glyph unicode="‐" horiz-adv-x="716" vert-adv-y="2457" d="M88 478v151h540v-151h-540z"/>
<glyph unicode="‑" horiz-adv-x="716" vert-adv-y="2457" d="M88 478v151h540v-151h-540z"/>
<glyph unicode="‒" horiz-adv-x="716" vert-adv-y="2457" d="M88 478v151h540v-151h-540z"/>
<glyph unicode="–" horiz-adv-x="1024" vert-adv-y="2457" d="M82 484v140h860v-140h-860z"/>
<glyph unicode="—" horiz-adv-x="1024" vert-adv-y="2457" d="M-123 484v140h1270v-140h-1270z"/>
<glyph unicode="‘" horiz-adv-x="541" vert-adv-y="2457" d="M88 1030l173 445h173l-136 -445h-210z"/>
<glyph unicode="’" horiz-adv-x="541" vert-adv-y="2457" d="M75 1030l136 445h210l-173 -445h-173z"/>
<glyph unicode="‚" horiz-adv-x="541" vert-adv-y="2457" d="M75 -229l136 445h210l-173 -445h-173z"/>
<glyph unicode="“" horiz-adv-x="873" vert-adv-y="2457" d="M93 1030l173 445h172l-135 -445h-210zM417 1030l172 445h173l-137 -445h-208z"/>
<glyph unicode="”" horiz-adv-x="873" vert-adv-y="2457" d="M80 1030l135 445h210l-173 -445h-172zM404 1030l135 445h210l-173 -445h-172z"/>
<glyph unicode="„" horiz-adv-x="873" vert-adv-y="2457" d="M80 -224l135 445h210l-173 -445h-172zM404 -224l135 445h210l-173 -445h-172z"/>
<glyph unicode="•" vert-adv-y="2457" d="M295 472v574h557v-574h-557z"/>
<glyph unicode="…" horiz-adv-x="1618" vert-adv-y="2457" d="M193 0v221h204v-221h-204zM707 0v221h204v-221h-204zM1220 0v221h204v-221h-204z"/>
<glyph unicode=" " horiz-adv-x="402" vert-adv-y="0"/>
<glyph unicode="‹" horiz-adv-x="495" vert-adv-y="2457" d="M239 463l172 -345l-132 -57l-196 402l196 403l132 -59z"/>
<glyph unicode="›" horiz-adv-x="495" vert-adv-y="2457" d="M255 463l-172 344l133 59l195 -403l-195 -402l-133 57z"/>
<glyph unicode=" " horiz-adv-x="502" vert-adv-y="0"/>
<glyph unicode="€" horiz-adv-x="1470" vert-adv-y="2457" d="M36 514v119h173q-4 51 -4 88q0 32 2 65h-171v119h183q29 191 128 339q175 262 498 262q210 0 348 -115v84h147v-431h-155v27q0 100 -42 157q-40 56 -124 90q-74 30 -168 30q-235 0 -359 -204q-61 -102 -87 -239h599v-119h-612q-3 -32 -3 -60q0 -42 4 -93h530v-119h-509 q31 -114 77 -188q122 -196 370 -196q161 0 282 87q48 34 127 131l114 -120q-86 -117 -185 -174q-145 -85 -343 -85q-353 0 -516 250q-87 133 -117 295h-187z"/>
<glyph unicode="™" horiz-adv-x="1538" vert-adv-y="2457" d="M266 870v504h-121v-115h-113v216h593v-216h-113v115h-121v-504h97v-101h-317v101h95zM693 870l38 504h-70v101h221l163 -448q2 -5 9 -26q2 -7 7 -22q5 15 8 22q6 21 8 25l163 449h219v-101h-70l38 -504h64v-101h-254v101h66l-25 387l-177 -488h-81l-178 488l-25 -387h67 v-101h-255v101h64z"/>
<glyph unicode="" horiz-adv-x="970" vert-adv-y="1939" d="M0 970h970v-970h-970v970z"/>
<glyph unicode="ﬁ" horiz-adv-x="1295" vert-adv-y="2457" d="M919 151v667h-151v151h325v-818h147v-151h-478v151h157zM905 1271v204h199v-204h-199zM219 151v667h-154v151h154v116q0 187 65 279q80 111 264 111q82 0 161 -19v-145q-74 17 -140 17q-125 0 -158 -88q-18 -48 -18 -161v-110h244v-151h-244v-667h205v-151h-533v151h154z "/>
<glyph unicode="ﬂ" horiz-adv-x="1292" vert-adv-y="2457" d="M916 151v1173h-151v151h325v-1324h147v-151h-478v151h157zM219 151v667h-154v151h154v116q0 187 65 279q80 111 264 111q82 0 161 -19v-145q-74 17 -140 17q-125 0 -158 -88q-18 -48 -18 -161v-110h244v-151h-244v-667h205v-151h-533v151h154z"/>
<glyph unicode="ﬃ" horiz-adv-x="1984" vert-adv-y="2457" d="M1608 151v667h-151v151h325v-818h147v-151h-478v151h157zM1594 1271v204h199v-204h-199zM908 151v667h-154v151h154v116q0 187 65 279q80 111 264 111q82 0 161 -19v-145q-74 17 -140 17q-125 0 -158 -88q-18 -48 -18 -161v-110h244v-151h-244v-667h205v-151h-533v151 h154zM219 151v667h-154v151h154v116q0 187 65 279q80 111 264 111q82 0 161 -19v-145q-74 17 -140 17q-125 0 -158 -88q-18 -48 -18 -161v-110h244v-151h-244v-667h205v-151h-533v151h154z"/>
<glyph unicode="ﬄ" horiz-adv-x="1981" vert-adv-y="2457" d="M1605 151v1173h-151v151h325v-1324h147v-151h-478v151h157zM908 151v667h-154v151h154v116q0 187 65 279q80 111 264 111q82 0 161 -19v-145q-74 17 -140 17q-125 0 -158 -88q-18 -48 -18 -161v-110h244v-151h-244v-667h205v-151h-533v151h154zM219 151v667h-154v151h154 v116q0 187 65 279q80 111 264 111q82 0 161 -19v-145q-74 17 -140 17q-125 0 -158 -88q-18 -48 -18 -161v-110h244v-151h-244v-667h205v-151h-533v151h154z"/>
</font>
</defs>
</svg>
